+100


Топ за 24 часа
 
 

[Цитировать]

- Паранормальный отряд / Ghost Team (2016) WEB-DL [H.264/720p-LQ]-Производство: США, East to West Entertainment, Mott Street Pictures, Preferred Content
Жанр: Комедия
Режиссер: Оливер Ирвинг
Актеры: Джон Хидер, Дэвид Крамхолц, Джастин Лонг, Мелони Диас, Эми Седарис, Пол В. Даунс, Том Шиллер, Джоэль Марш Гарлэнд, Мартин Барабаш, Вероника Дэш
Описание:
Энтузиасты сверхъестественного отправляются на заброшенную ферму, где, судя по слухам, можно столкнуться с необъяснимыми явлениями, и действительно находят нечто. Возможно, к привидениям это Нечто и не имеет никакого отношения, но зато поможет одиноким людям отыскать настоящую дружбу и пережить захватывающее приключение. Каждый из нас ищет по жизни что-то большое и важное — Призрачная команда своей цели, похоже, достигнет.

Рейтинг MPAA: PG-13 (детям до 13 лет просмотр нежелателен)
Дата мировой премьеры: 21 июля 2016
Продолжительность: 01:24:51
Качество видео: WEB-DL
Перевод: Дублированный (iTunes)
Субтитры: английские
Видео: AVC/H.264, 1280x544, ~3984 Kbps
Аудио #1: AC-3, 48.0 KHz, 6 ch, 384 Kbps | Русский
Аудио #2: AC-3, 48.0 KHz, 6 ch, 384 Kbps | Английский

MediaInfo

Общее
Уникальный идентификатор : 191255028444751107341182173063633907580 (0x8FE260EDDF37F3EDBE3F2CB45D9F2F7C)
Полное имя : E:\Ghost.Team.2016.720p.WEB-DL.Rus.Eng.NNM-CLUB.mkv
Формат : Matroska
Версия формата : Version 4 / Version 2
Размер файла : 2,87 Гбайт
Продолжительность : 1 ч. 24 м.
Общий поток : 4848 Кбит/сек
Название фильма : GHOST_TEAM_WEB_DL__720p-BLUEBIRD
Дата кодирования : UTC 2018-03-11 19:23:50
Программа кодирования : mkvmerge v6.9.1 ('Blue Panther') 32bit built on Apr 18 2014 18:15:44
Библиотека кодирования : libebml v1.3.0 + libmatroska v1.4.1
Видео
Идентификатор : 1
Формат : AVC
Формат/Информация : Advanced Video Codec
Профиль формата : Main@L3.1
Параметр CABAC формата : Нет
Параметр ReFrames формата : 2 кадра
Идентификатор кодека : V_MPEG4/ISO/AVC
Продолжительность : 1 ч. 24 м.
Битрейт : 3984 Кбит/сек
Ширина : 1280 пикселей
Высота : 544 пикселя
Соотношение сторон : 2,35:1
Режим частоты кадров : Постоянный
Частота кадров : 23,976 кадра/сек
Цветовое пространство : YUV
Субдискретизация насыщенности : 4:2:0
Битовая глубина : 8 бит
Тип развёртки : Прогрессивная
Бит/(Пиксели*Кадры) : 0.239
Размер потока : 2,36 Гбайт (82%)
Заголовок : GHOST_TEAM_WEB_DL__720p-BLUEBIRD
Язык : English
Default : Да
Forced : Нет
Цветовой диапазон : Limited
Основные цвета : BT.709
Характеристики трансфера : BT.709
Коэффициенты матрицы : BT.709
Аудио #1
Идентификатор : 2
Формат : AC-3
Формат/Информация : Audio Coding 3
Расширение режима : CM (complete main)
Параметр Endianness формата : Big
Идентификатор кодека : A_AC3
Продолжительность : 1 ч. 24 м.
Вид битрейта : Постоянный
Битрейт : 384 Кбит/сек
Каналы : 6 каналов
Расположение каналов : Front: L C R, Side: L R, LFE
Частота : 48,0 КГц
Частота кадров : 31,250 кадров/сек (1536 spf)
Битовая глубина : 16 бит
Метод сжатия : С потерями
Размер потока : 233 Мбайт (8%)
Заголовок : [DUB] DD 5.1 @ 384 kbps (iTunes)
Язык : Russian
Default : Да
Forced : Нет
Аудио #2
Идентификатор : 3
Формат : AC-3
Формат/Информация : Audio Coding 3
Расширение режима : CM (complete main)
Параметр Endianness формата : Big
Идентификатор кодека : A_AC3
Продолжительность : 1 ч. 24 м.
Вид битрейта : Постоянный
Битрейт : 384 Кбит/сек
Каналы : 6 каналов
Расположение каналов : Front: L C R, Side: L R, LFE
Частота : 48,0 КГц
Частота кадров : 31,250 кадров/сек (1536 spf)
Битовая глубина : 16 бит
Метод сжатия : С потерями
Размер потока : 233 Мбайт (8%)
Заголовок : [ORIGINAL] DD 5.1 @ 384 kbps (iTunes)
Язык : English
Default : Нет
Forced : Нет
Текст
Идентификатор : 4
Формат : UTF-8
Идентификатор кодека : S_TEXT/UTF8
Идентификатор кодека/Информация : UTF-8 Plain Text
Заголовок : Full-length
Язык : English
Default : Нет
Forced : Нет
Меню
00:00:00.000 : en:Car Got Cold
00:10:37.000 : en:Putting the Team Together
00:19:51.000 : en:The Final Piece of the Puzzle
00:29:46.000 : en:I Think We Are Ready to Go
00:38:52.000 : en:E.V.P. Work
00:49:32.000 : en:Let's Go Hunt Some Ghosts
00:59:38.000 : en:Small People
01:10:08.000 : en:Fighting Back
01:17:48.000 : en:Dream Weavers
Скриншоты:




Показать сообщения:    

Текущее время: 19-Июн 08:26

Часовой пояс: UTC + 11


Вы не можете начинать темы
Вы не можете отвечать на сообщения
Вы не можете редактировать свои сообщения
Вы не можете удалять свои сообщения
Вы не можете голосовать в опросах
Вы не можете прикреплять файлы к сообщениям
Вы не можете скачивать файлы

Сайт не предоставляет электронные версии произведений, а занимается лишь коллекционированием и каталогизацией ссылок, присылаемых и публикуемых на форуме нашими читателями. Если вы являетесь правообладателем какого-либо представленного материала и не желаете, чтобы ссылка на него находилась в нашем каталоге, свяжитесь с нами, и мы незамедлительно удалим ее. Файлы для обмена на трекере предоставлены пользователями сайта, и администрация не несет ответственности за их содержание. Просьба не заливать файлы, защищенные авторскими правами, а также файлы нелегального содержания!