+100


Топ за 24 часа
 
 

[Цитировать]

-Девушка в тумане / La ragazza nella nebbia (2017) BDRip [H.264/1080p]-Производство: Италия, Германия, Франция / Colorado Film Production
Жанр: Триллер, криминал
Режиссер: Донато Карризи
Актеры: Тони Сервилло, Жан Рено, Алессио Бони, Лоренцо Рикельми, Галатеа Ранци, Микела Ческон, Лукреция Гидоне, Даниэла Пьяцца, Якопо Ольмо Антинори, Марина Оккьонеро
Описание:
Холодной зимней ночью психиатра Аугусто Флореса срочно вызывают на работу, чтобы обследовать попавшего в аварию инспектора Фогеля. Инспектор ничего не помнит, на месте аварии ничто не указывает на ее причину и на ее жертв, однако рубашка Фогеля в пятнах свежей крови, и эта кровь не его. В ходе беседы начинает восстанавливаться цепь невероятных событий, начавшихся месяц назад...

Возраст: 16+ (зрителям, достигшим 16 лет)
Дата мировой премьеры: 26 октября 2017
Дата премьеры в России: 25 января 2018

Продолжительность: 02:08:18
Качество видео: BDRip (batonchik)
Перевод: Дублированный (iTunes)
Субтитры: Английские
Видео: AVC/H.264, 1920x800, 9000 kbps, 24.00 fps
Аудио 1: AC3, 6 ch, 384 Kbps - Русский
Аудио 2: AC3, 6 ch, 640 Kbps - Итальянский

h.264 log:

---[Information] [10.03.2018 17:33:00] raw [info]: 1920x800p 1:1 @ 24/1 fps (cfr)
---[Information] [10.03.2018 17:33:00] x264 [info]: using SAR=1/1
---[Information] [10.03.2018 17:33:00] x264 [info]: using cpu capabilities: MMX2 SSE2Fast SSSE3 SSE4.2 AVX
---[Information] [10.03.2018 17:33:00] x264 [info]: profile High, level 4.1
---[Information] [10.03.2018 17:39:40] x264 [info]: frame I:47 Avg QP:11.58 size:224169
---[Information] [10.03.2018 17:39:40] x264 [info]: frame P:596 Avg QP:15.07 size: 72411
---[Information] [10.03.2018 17:39:40] x264 [info]: frame B:1907 Avg QP:16.27 size: 34430

---[Information] [10.03.2018 17:39:40] x264 [info]: consecutive B-frames: 5.8% 4.5% 9.6% 7.8% 10.6% 50.1% 6.0% 1.6% 3.9%

MediaInfo

Общее
Полное имя : \Девушка в тумане_La ragazza nella nebbia.2017.BDRip.1080p.NNMClub.mkv
Формат : Matroska
Версия формата : Version 4 / Version 2
Размер файла : 8,99 Гбайт
Продолжительность : 2 ч. 8 м.
Общий поток : 10,0 Мбит/сек
Название фильма : Девушка в тумане_La ragazza nella nebbia.2017.BDRip.1080p.NNMClub
Дата кодирования : UTC 2018-03-12 08:27:10
Программа кодирования : mkvmerge v21.0.0 ('Tardigrades Will Inherit The Earth') 64-bit
Библиотека кодирования : libebml v1.3.5 + libmatroska v1.4.8
Видео
Идентификатор : 1
Формат : AVC
Формат/Информация : Advanced Video Codec
Профиль формата : High@L4.1
Настройки формата : CABAC / 5 Ref Frames
Параметр CABAC формата : Да
Параметр RefFrames формата : 5 кадров
Идентификатор кодека : V_MPEG4/ISO/AVC
Продолжительность : 2 ч. 8 м.
Битрейт : 9000 Кбит/сек
Ширина : 1920 пикселей
Высота : 800 пикселей
Соотношение сторон : 2,40:1
Режим частоты кадров : Постоянный
Частота кадров : 24,000 кадра/сек
Цветовое пространство : YUV
Субдискретизация насыщенности : 4:2:0
Битовая глубина : 8 бит
Тип развёртки : Прогрессивная
Бит/(Пиксели*Кадры) : 0.244
Размер потока : 8,07 Гбайт (90%)
Заголовок : Девушка в тумане_La ragazza nella nebbia.2017.BDRip.1080p.NNMClub
Библиотека кодирования : x264 core 155 r2901 7d0ff22
Настройки программы : cabac=1 / ref=5 / deblock=1:-2:-2 / analyse=0x3:0x133 / me=umh / subme=10 / psy=1 / psy_rd=1.00:0.00 / mixed_ref=1 / me_range=24 / chroma_me=1 / trellis=2 / 8x8dct=1 / cqm=0 / deadzone=21,11 / fast_pskip=0 / chroma_qp_offset=-2 / threads=12 / lookahead_threads=2 / sliced_threads=0 / nr=0 / decimate=1 / interlaced=0 / bluray_compat=0 / constrained_intra=0 / bframes=8 / b_pyramid=2 / b_adapt=2 / b_bias=0 / direct=3 / weightb=1 / open_gop=0 / weightp=2 / keyint=250 / keyint_min=23 / scenecut=40 / intra_refresh=0 / rc_lookahead=40 / rc=2pass / mbtree=1 / bitrate=9000 / ratetol=1.0 / qcomp=0.60 / qpmin=0 / qpmax=69 / qpstep=4 / cplxblur=20.0 / qblur=0.5 / vbv_maxrate=50000 / vbv_bufsize=62500 / nal_hrd=none / filler=0 / ip_ratio=1.40 / aq=1:0.90
Язык : English
Default : Да
Forced : Нет
Аудио #1
Идентификатор : 2
Формат : AC-3
Формат/Информация : Audio Coding 3
Идентификатор кодека : A_AC3
Продолжительность : 2 ч. 8 м.
Вид битрейта : Постоянный
Битрейт : 384 Кбит/сек
Каналы : 6 каналов
Расположение каналов : Front: L C R, Side: L R, LFE
Частота : 48,0 КГц
Частота кадров : 31,250 кадров/сек (1536 SPF)
Битовая глубина : 16 бит
Метод сжатия : С потерями
Размер потока : 352 Мбайт (4%)
Заголовок : Дублированный (iTunes)
Язык : Russian
ServiceKind/String : Complete Main
Default : Да
Forced : Нет
Аудио #2
Идентификатор : 3
Формат : AC-3
Формат/Информация : Audio Coding 3
Идентификатор кодека : A_AC3
Продолжительность : 2 ч. 8 м.
Вид битрейта : Постоянный
Битрейт : 640 Кбит/сек
Каналы : 6 каналов
Расположение каналов : Front: L C R, Side: L R, LFE
Частота : 48,0 КГц
Частота кадров : 31,250 кадров/сек (1536 SPF)
Битовая глубина : 16 бит
Метод сжатия : С потерями
Размер потока : 587 Мбайт (6%)
Язык : English
ServiceKind/String : Complete Main
Default : Нет
Forced : Нет
Текст
Идентификатор : 4
Формат : UTF-8
Идентификатор кодека : S_TEXT/UTF8
Идентификатор кодека/Информация : UTF-8 Plain Text
Продолжительность : 1 ч. 59 м.
Битрейт : 45 бит/сек
ElementCount : 1085
Размер потока : 39,9 Кбайт (0%)
Язык : English
Default : Нет
Forced : Нет
Меню
00:00:00.000 : en:Chapter 01
00:06:17.875 : en:Chapter 02
00:15:48.041 : en:Chapter 03
00:22:44.500 : en:Chapter 04
00:31:22.083 : en:Chapter 05
00:39:51.750 : en:Chapter 06
00:47:44.416 : en:Chapter 07
00:54:36.416 : en:Chapter 08
01:01:11.750 : en:Chapter 09
01:11:32.083 : en:Chapter 10
01:18:15.791 : en:Chapter 11
01:27:31.708 : en:Chapter 12
01:38:13.875 : en:Chapter 13
01:47:45.541 : en:Chapter 14
01:57:28.083 : en:Chapter 15
Скриншоты:




Показать сообщения:    

Текущее время: 23-Июн 13:29

Часовой пояс: UTC + 11


Вы не можете начинать темы
Вы не можете отвечать на сообщения
Вы не можете редактировать свои сообщения
Вы не можете удалять свои сообщения
Вы не можете голосовать в опросах
Вы не можете прикреплять файлы к сообщениям
Вы не можете скачивать файлы

Сайт не предоставляет электронные версии произведений, а занимается лишь коллекционированием и каталогизацией ссылок, присылаемых и публикуемых на форуме нашими читателями. Если вы являетесь правообладателем какого-либо представленного материала и не желаете, чтобы ссылка на него находилась в нашем каталоге, свяжитесь с нами, и мы незамедлительно удалим ее. Файлы для обмена на трекере предоставлены пользователями сайта, и администрация не несет ответственности за их содержание. Просьба не заливать файлы, защищенные авторскими правами, а также файлы нелегального содержания!