+100


Топ за 24 часа
 
 

[Цитировать]

-Тор: Рагнарёк / Thor: Ragnarok (2017) BDRip [H.264/1080p-LQ]«No Hammer. No Problem»-Производство: США / Marvel Entertainment
Жанр: фантастика, фэнтези, боевик, комедия, приключения
Режиссер: Тайка Вайтити
Продюсер: Виктория Алонсо, Брайан Чапек, Луис Д’Эспозито
Актеры: Крис Хемсворт, Том Хиддлстон, Кейт Бланшетт, Идрис Эльба, Джефф Голдблюм, Тесса Томпсон, Карл Урбан, Марк Руффало, Энтони Хопкинс, Бенедикт Камбербэтч
Описание:
Вернувшись в Асгард в поисках таинственного врага, ведущего охоту на Камни Бесконечности, Тор обнаруживает, что действия его брата Локи, захватившего трон Асгарда, привели к приближению наиболее страшного события — Рагнарёка. По легенде это ознаменует последнюю битву Асгарда, последствием которой станет его полное уничтожение. В попытке предотвратить это событие Тору предстоит прибегнуть к помощи своего товарища из Мстителей — Халка. Вместе им предстоит столкнуться лицом к лицу со злейшим врагом всех девяти миров — огненным демоном Суртуром, целью которого является исполнение пророчества о Рагнарёке и уничтожение девяти миров.

Возраст: 16+ (зрителям, достигшим 16 лет)
Рейтинг MPAA: PG-13 (детям до 13 лет просмотр нежелателен)
Дата мировой премьеры: 10 октября 2017
Премьера (РФ): 2 ноября 2017, «WDSSPR» 3D
Релиз на Blu-ray/DVD: 27 марта 2018, «Уолт Дисней Компани СНГ»

Релиз от: Magnetto83
Продолжительность: 02:10:30
Качество: BDRip 1080p-LQ
Перевод: Дублированный (Лицензия BD EUR)
Субтитры: Русские (Форс.+полные), английские
Видео: H.264/AVC, 1920x804, (2.40:1), 4341 kbps, 23.976 fps
Аудио: AC3, 6 ch, 448 kbps - Русский

BDInfo

General
Unique ID : 219400319767677598473486553324789628138 (0xA50EF6EDB92DB3D2872603EDB6E2FCEA)
Complete name : Тор 3. Рагнарёк 2017 Dub Rus BDRip 1080p.mkv
Format : Matroska
Format version : Version 4 / Version 2
File size : 4.37 GiB
Duration : 2 h 10 min
Overall bit rate : 4 791 kb/s
Movie name : Тор 3. Рагнарёк 2017 Dub Rus BDRip 1080p By R.G. GoldenShara
Encoded date : UTC 2018-03-01 16:30:14
Writing application : mkvmerge v7.0.0 ('Where We Going') 64bit built on Jun 9 2014 15:16:27
Writing library : libebml v1.3.0 + libmatroska v1.4.1
Cover : Yes
Attachments : Cover
Video
ID : 1
Format : AVC
Format/Info : Advanced Video Codec
Format profile : High@L4.1
Format settings : CABAC / 5 Ref Frames
Format settings, CABAC : Yes
Format settings, ReFrames : 5 frames
Codec ID : V_MPEG4/ISO/AVC
Duration : 2 h 10 min
Bit rate : 4 341 kb/s
Width : 1 920 pixels
Height : 804 pixels
Display aspect ratio : 2.40:1
Frame rate mode : Constant
Frame rate : 23.976 (24000/1001) FPS
Color space : YUV
Chroma subsampling : 4:2:0
Bit depth : 8 bits
Scan type : Progressive
Bits/(Pixel*Frame) : 0.117
Stream size : 3.96 GiB (91%)
Title : Тор 3. Рагнарёк 2017 BDRip 1080p By Magnetto 83
Writing library : x264 core 146 r2538 121396c
Encoding settings : cabac=1 / ref=5 / deblock=1:-2:-2 / analyse=0x3:0x113 / me=umh / subme=10 / psy=1 / psy_rd=1.00:0.00 / mixed_ref=1 / me_range=32 / chroma_me=1 / trellis=2 / 8x8dct=1 / cqm=0 / deadzone=21,11 / fast_pskip=0 / chroma_qp_offset=-2 / threads=3 / lookahead_threads=1 / sliced_threads=0 / nr=0 / decimate=1 / interlaced=0 / bluray_compat=0 / constrained_intra=0 / bframes=8 / b_pyramid=2 / b_adapt=2 / b_bias=0 / direct=3 / weightb=1 / open_gop=0 / weightp=2 / keyint=250 / keyint_min=23 / scenecut=40 / intra_refresh=0 / rc=2pass / mbtree=0 / bitrate=4341 / ratetol=1.0 / qcomp=0.60 / qpmin=0 / qpmax=69 / qpstep=4 / cplxblur=20.0 / qblur=0.5 / ip_ratio=1.40 / pb_ratio=1.30 / aq=2:1.00
Default : Yes
Forced : No
Audio
ID : 2
Format : AC-3
Format/Info : Audio Coding 3
Codec ID : A_AC3
Duration : 2 h 10 min
Bit rate mode : Constant
Bit rate : 448 kb/s
Channel(s) : 6 channels
Channel positions : Front: L C R, Side: L R, LFE
Sampling rate : 48.0 kHz
Frame rate : 31.250 FPS (1536 SPF)
Bit depth : 16 bits
Compression mode : Lossy
Stream size : 418 MiB (9%)
Title : DD 5.1 @ 448 Kbps - Дубляж | Blu-ray EUR |
Language : Russian
Service kind : Complete Main
Default : Yes
Forced : No
Text #1
ID : 3
Format : UTF-8
Codec ID : S_TEXT/UTF8
Codec ID/Info : UTF-8 Plain Text
Duration : 1 h 56 min
Bit rate : 0 b/s
Count of elements : 4
Stream size : 216 Bytes (0%)
Title : Форс.
Language : Russian
Default : Yes
Forced : No
Text #2
ID : 4
Format : UTF-8
Codec ID : S_TEXT/UTF8
Codec ID/Info : UTF-8 Plain Text
Duration : 2 h 9 min
Bit rate : 84 b/s
Count of elements : 1560
Stream size : 80.0 KiB (0%)
Title : Полные
Language : Russian
Default : No
Forced : No
Text #3
ID : 5
Format : UTF-8
Codec ID : S_TEXT/UTF8
Codec ID/Info : UTF-8 Plain Text
Duration : 2 h 9 min
Bit rate : 49 b/s
Count of elements : 1568
Stream size : 47.1 KiB (0%)
Title : Full
Language : English
Default : No
Forced : No
Menu
00:00:00.000 : en:The Great Prophecy
00:06:20.672 : en:The Tragedy Of Loki Of Asgard
00:14:11.642 : en:A Worthy Inclusion
00:22:12.873 : en:The Goddess Of Death
00:26:43.060 : en:"Are You A Fighter, Or Are You Food?"
00:31:29.721 : en:Heiress Apparent
00:35:03.935 : en:The Grandmaster
00:42:49.734 : en:The Eternal Flame
00:48:31.534 : en:The Contest Of Champions
00:59:38.784 : en:The Resistance
01:07:57.907 : en:Hotheaded Fools
01:17:30.604 : en:The Revengers
01:27:25.323 : en:"The Revolution Has Begun"
01:36:08.721 : en:Ready For War
01:42:35.733 : en:"Asgard Is Not A Place"
01:49:19.887 : en:"What Were You The God Of Again?"
01:54:57.599 : en:Ragnarok
02:00:37.522 : en:End Credits
Скриншоты:




Показать сообщения:    

Текущее время: 23-Июн 13:34

Часовой пояс: UTC + 11


Вы не можете начинать темы
Вы не можете отвечать на сообщения
Вы не можете редактировать свои сообщения
Вы не можете удалять свои сообщения
Вы не можете голосовать в опросах
Вы не можете прикреплять файлы к сообщениям
Вы не можете скачивать файлы

Сайт не предоставляет электронные версии произведений, а занимается лишь коллекционированием и каталогизацией ссылок, присылаемых и публикуемых на форуме нашими читателями. Если вы являетесь правообладателем какого-либо представленного материала и не желаете, чтобы ссылка на него находилась в нашем каталоге, свяжитесь с нами, и мы незамедлительно удалим ее. Файлы для обмена на трекере предоставлены пользователями сайта, и администрация не несет ответственности за их содержание. Просьба не заливать файлы, защищенные авторскими правами, а также файлы нелегального содержания!