+100


Топ за 24 часа
 
 

[Цитировать]

-Агенты Щ.И.Т. / Agents of S.H.I.E.L.D.-
Дата выпуска сезона: 2015
Производство: США
Жанр: Боевик, фантастика, драма
Режиссер: Джесси Бокко, Милан Чейлов, Роксанн Доусон, Дэвид Стрейтон, Джосс Уидон, Винс Мисиано
Актеры:
-
Строго засекреченную организация под названием Щ.И.Т. создали много лет тому назад, чтобы бороться с инопланетными угрозами и с силами зла, которые наделены сверхъестественными силами. Профессиональные агенты в наше время вынуждены вести войну уже с более сильными и опытными врагами, чтобы защитить родную землю от их нападок. Теперь они отправляются на поиски артефактов, наделенных неведомой силой, разрабатывать новейшие засекреченные технологии и разыскивают людей, обладающих необыкновенными способностями.
Кажется, еще не так давно профессиональному агенту Колсону удалось разбить жестокую организацию нацистов, но теперь миру вновь грозит новая, еще более страшная угроза. На первый взгляд так называемые Нелюди кажутся вполне обыкновенными людьми, но они наделены суперспособностями, которые появились у них и-за определенного гена. Вскоре на мир внезапно обрушивается странное и опасное вещество, которое плодит все большее количество этих невероятных существ. Агенты укрывают их в безопасном, как им кажется, месте, чтобы обучить всему необходимому и предотвратить угрозу, которую существа могут нанести планете. Но у них неожиданно объявляется могущественный конкурент, который хочет использовать силы Нелюдей в своих целях…
-
Продолжительность: ~ 00:43:00/серия
Качество видео: WEB-DLRip
Перевод: Профессиональный (многоголосый, закадровый) [LostFilm]
Видео: ~ 1 354 kb/s, 720x400 (16:9), 23.976 fps
Аудио: RUS: MPEG Audio, 48 KHz, 2 ch, 128 kb/s
Аудио: ENG: MPEG Audio, 48 KHz, 2 ch, 128 kb/s

MediaInfo

General
Complete name :\Agents of S.H.I.E.L.D (Season 03)\Agents.of.S.H.I.E.L.D.S03E01.XviD.LostFilm.[qqss44].avi
Format : AVI
Format/Info : Audio Video Interleave
File size : 500 MiB
Duration : 43 min 3 s
Overall bit rate : 1 624 kb/s
Writing application : VirtualDubMod 1.5.10.3 | www.virtualdub-fr.org || (build 2550/release)
Writing library : VirtualDubMod build 2550/release
Video
ID : 0
Format : MPEG-4 Visual
Format profile : Advanced Simple@L5
Format settings : BVOP2
Format settings, BVOP : 2
Format settings, QPel : No
Format settings, GMC : No warppoints
Format settings, Matrix : Default (MPEG)
Codec ID : XVID
Codec ID/Hint : XviD
Duration : 43 min 3 s
Bit rate : 1 354 kb/s
Width : 720 pixels
Height : 400 pixels
Display aspect ratio : 16:9
Frame rate : 23.976 (24000/1001) FPS
Color space : YUV
Chroma subsampling : 4:2:0
Bit depth : 8 bits
Scan type : Progressive
Compression mode : Lossy
Bits/(Pixel*Frame) : 0.196
Stream size : 417 MiB (83%)
Writing library : XviD 73
Audio #1
ID : 1
Format : MPEG Audio
Format version : Version 1
Format profile : Layer 3
Format settings : Joint stereo / MS Stereo
Codec ID : 55
Codec ID/Hint : MP3
Duration : 43 min 3 s
Bit rate mode : Constant
Bit rate : 128 kb/s
Channel(s) : 2 channels
Sampling rate : 48.0 kHz
Compression mode : Lossy
Stream size : 39.4 MiB (8%)
Alignment : Aligned on interleaves
Interleave, duration : 42 ms (1.00 video frame)
Interleave, preload duration : 504 ms
Audio #2
ID : 2
Format : MPEG Audio
Format version : Version 1
Format profile : Layer 3
Format settings : Joint stereo / MS Stereo
Codec ID : 55
Codec ID/Hint : MP3
Duration : 43 min 3 s
Bit rate mode : Constant
Bit rate : 128 kb/s
Channel(s) : 2 channels
Sampling rate : 48.0 kHz
Compression mode : Lossy
Stream size : 39.4 MiB (8%)
Alignment : Aligned on interleaves
Interleave, duration : 42 ms (1.00 video frame)
Interleave, preload duration : 504 ms
-
-Скриншоты:




Показать сообщения:    

Текущее время: 19-Июн 08:25

Часовой пояс: UTC + 11


Вы не можете начинать темы
Вы не можете отвечать на сообщения
Вы не можете редактировать свои сообщения
Вы не можете удалять свои сообщения
Вы не можете голосовать в опросах
Вы не можете прикреплять файлы к сообщениям
Вы не можете скачивать файлы

Сайт не предоставляет электронные версии произведений, а занимается лишь коллекционированием и каталогизацией ссылок, присылаемых и публикуемых на форуме нашими читателями. Если вы являетесь правообладателем какого-либо представленного материала и не желаете, чтобы ссылка на него находилась в нашем каталоге, свяжитесь с нами, и мы незамедлительно удалим ее. Файлы для обмена на трекере предоставлены пользователями сайта, и администрация не несет ответственности за их содержание. Просьба не заливать файлы, защищенные авторскими правами, а также файлы нелегального содержания!