+100


Топ за 24 часа
 
 

[Цитировать]

- Дорога из желтого кирпича (2017) WEB-DLRip (сезон 1, серии 1-4 из 4) -Производство: Россия | Маурис Филм
Жанр: мелодрама
Режиссер: Екатерина Шагалова
Актеры: Дмитрий Марьянов, Мария Шалаева, Даниил Спиваковский, Екатерина Волкова, Евгений Сидихин, Екатерина Вуличенко, Андрей Барило, Иван Щенин, Александр Булатов, Григорий Середа и др.
Описание:
Девушка Варя случайно встречает свою детскую любовь — Ивана Петровича Соболя. От школьной подруги она узнает, что он потерял жену и ребенка в автомобильной аварии. Варя решает рассказать Ивану историю о том, как 10 лет назад в клинике, где она работала, перепутали ЭКО материалы, и о том, что у него в другой семье растет его биологический сын…

Возраст: 12+ (зрителям, достигшим 12 лет)
Дата российской премьеры: 10 марта 2018
Продолжительность: ~00:45:00 серия
Качество видео: WEB-DLRip
Видео: AVC/H.264, 1024х576 (16:9), ~1600 kbps
Аудио: AC3, 2 ch, 44.1 kHz, 192 kbps CBR

MediaInfo

General
Unique ID : 178541156803349817372907501120413154612 (0x8651C6A9339910FF9E27C001EA6EBD34)
Complete name : D:\Дорога из желтого кирпича_2017_AVC\01_Дорога_из_желтого_кирпича_2017_AVC.mkv
Format : Matroska
Format version : Version 2
File size : 576 MiB
Duration : 44 min 56 s
Overall bit rate : 1 793 kb/s
Encoded date : UTC 2018-03-10 18:43:41
Writing application : mkvmerge v7.8.0 ('River Man') 32bit built on Apr 3 2015 12:11:22
Writing library : libebml v1.3.1 + libmatroska v1.4.2
Video
ID : 1
Format : AVC
Format/Info : Advanced Video Codec
Format profile : High@L4.1
Format settings, CABAC : Yes
Format settings, ReFrames : 9 frames
Codec ID : V_MPEG4/ISO/AVC
Duration : 44 min 56 s
Bit rate : 1 600 kb/s
Width : 1 024 pixels
Height : 576 pixels
Display aspect ratio : 16:9
Frame rate mode : Constant
Frame rate : 24.000 FPS
Color space : YUV
Chroma subsampling : 4:2:0
Bit depth : 8 bits
Scan type : Progressive
Bits/(Pixel*Frame) : 0.113
Stream size : 503 MiB (87%)
Writing library : x264 core 146 r2538 121396c
Encoding settings : cabac=1 / ref=9 / deblock=1:-2:-1 / analyse=0x3:0x133 / me=umh / subme=9 / psy=1 / psy_rd=1.00:0.15 / mixed_ref=1 / me_range=32 / chroma_me=1 / trellis=2 / 8x8dct=1 / cqm=0 / deadzone=21,11 / fast_pskip=0 / chroma_qp_offset=-3 / threads=18 / lookahead_threads=3 / sliced_threads=0 / nr=0 / decimate=1 / interlaced=0 / bluray_compat=0 / constrained_intra=0 / bframes=9 / b_pyramid=2 / b_adapt=2 / b_bias=0 / direct=1 / weightb=1 / open_gop=0 / weightp=2 / keyint=250 / keyint_min=23 / scenecut=40 / intra_refresh=0 / rc=2pass / mbtree=0 / bitrate=1600 / ratetol=1.0 / qcomp=0.60 / qpmin=0 / qpmax=69 / qpstep=4 / cplxblur=20.0 / qblur=0.5 / ip_ratio=1.40 / pb_ratio=1.30 / aq=2:1.00
Default : Yes
Forced : No
Color range : Limited
Color primaries : BT.709
Transfer characteristics : BT.709
Matrix coefficients : BT.709
Audio
ID : 2
Format : AC-3
Format/Info : Audio Coding 3
Format settings, Endianness : Big
Codec ID : A_AC3
Duration : 44 min 56 s
Bit rate mode : Constant
Bit rate : 192 kb/s
Channel(s) : 2 channels
Channel positions : Front: L R
Sampling rate : 44.1 kHz
Frame rate : 28.711 FPS (1536 spf)
Bit depth : 16 bits
Compression mode : Lossy
Stream size : 61.7 MiB (11%)
Service kind : Complete Main
Default : Yes
Forced : No
Скриншоты:




Показать сообщения:    

Текущее время: 23-Июн 13:40

Часовой пояс: UTC + 11


Вы не можете начинать темы
Вы не можете отвечать на сообщения
Вы не можете редактировать свои сообщения
Вы не можете удалять свои сообщения
Вы не можете голосовать в опросах
Вы не можете прикреплять файлы к сообщениям
Вы не можете скачивать файлы

Сайт не предоставляет электронные версии произведений, а занимается лишь коллекционированием и каталогизацией ссылок, присылаемых и публикуемых на форуме нашими читателями. Если вы являетесь правообладателем какого-либо представленного материала и не желаете, чтобы ссылка на него находилась в нашем каталоге, свяжитесь с нами, и мы незамедлительно удалим ее. Файлы для обмена на трекере предоставлены пользователями сайта, и администрация не несет ответственности за их содержание. Просьба не заливать файлы, защищенные авторскими правами, а также файлы нелегального содержания!