+100


 

[Цитировать]

- Новый муж (2017) WEB-DLRip [H.264] -Производство: Россия / Кинокомпания "Русское"
Жанр: мелодрама
Режиссер: Владимир Устюгов
Актеры: Ксения Кутепова, Сергей Маховиков, Марат Башаров, Светлана Немоляева, Александр Никитин, Ёла Санько, Екатерина Воронина и др.
Описание:
Тамара Волина приехала в Москву из деревни, поступила в Университет и на первом курсе вышла замуж за сына профессора. Но брак не принёс девушке счастья: муж оказался ревнивцем и пьяницей, и устроил Тамаре и их дочке Насте ужасную жизнь. Настя выросла под пьяные крики отца и звон разбитой посуды, видя страх Тамары. Из-за постоянных скандалов дома, Настя не справлялась с учёбой, и однажды Тамару вызвал директор школы — Евгений Павлович Ильин. Рядовой разговор обернулся настоящей драмой и повлёк за собой неожиданные последствия для героев.

Возраст: 12+ (зрителям, достигшим 12 лет)
Дата премьеры в России: 10 марта 2018
Продолжительность: ~00:45:00 серия
Качество видео: WEB-DLRip
(в раздаче 4 эпизода объединены в 2 файла по 2 эпизода)
Видео: AVC/H.264, 1024x576 (16:9), ~1600 Kbps
Аудио: AC-3, 44.1 KHz, 2 ch, 192 Kbps

MediaInfo

Общее
Уникальный идентификатор : 193620030102620604714863473836415694528 (0x91A9DC8373655EA29079ED4D16CEB6C0)
Полное имя : E:\NNM\Новый муж\Novyj muzh 2017 WEB-DLRip AVC\01.Novyj.muzh.mkv
Формат : Matroska
Версия формата : Version 2
Размер файла : 1,13 Гбайт
Продолжительность : 1 ч. 29 м.
Общий поток : 1794 Кбит/сек
Дата кодирования : UTC 2018-03-10 21:59:11
Программа кодирования : mkvmerge v7.8.0 ('River Man') 32bit built on Apr 3 2015 12:11:22
Библиотека кодирования : libebml v1.3.1 + libmatroska v1.4.2
Видео
Идентификатор : 1
Формат : AVC
Формат/Информация : Advanced Video Codec
Профиль формата : High@L4.1
Настройки формата : CABAC / 9 Ref Frames
Параметр CABAC формата : Да
Параметр RefFrames формата : 9 кадров
Идентификатор кодека : V_MPEG4/ISO/AVC
Продолжительность : 1 ч. 29 м.
Битрейт : 1600 Кбит/сек
Ширина : 1024 пикселя
Высота : 576 пикселей
Соотношение сторон : 16:9
Режим частоты кадров : Постоянный
Частота кадров : 25,000 кадров/сек
Цветовое пространство : YUV
Субдискретизация насыщенности : 4:2:0
Битовая глубина : 8 бит
Тип развёртки : Прогрессивная
Бит/(Пиксели*Кадры) : 0.109
Размер потока : 1008 Мбайт (87%)
Библиотека кодирования : x264 core 146 r2538 121396c
Настройки программы : cabac=1 / ref=9 / deblock=1:-2:-1 / analyse=0x3:0x133 / me=umh / subme=9 / psy=1 / psy_rd=1.00:0.15 / mixed_ref=1 / me_range=32 / chroma_me=1 / trellis=2 / 8x8dct=1 / cqm=0 / deadzone=21,11 / fast_pskip=0 / chroma_qp_offset=-3 / threads=18 / lookahead_threads=3 / sliced_threads=0 / nr=0 / decimate=1 / interlaced=0 / bluray_compat=0 / constrained_intra=0 / bframes=9 / b_pyramid=2 / b_adapt=2 / b_bias=0 / direct=1 / weightb=1 / open_gop=0 / weightp=2 / keyint=250 / keyint_min=25 / scenecut=40 / intra_refresh=0 / rc=2pass / mbtree=0 / bitrate=1600 / ratetol=1.0 / qcomp=0.60 / qpmin=0 / qpmax=69 / qpstep=4 / cplxblur=20.0 / qblur=0.5 / ip_ratio=1.40 / pb_ratio=1.30 / aq=2:1.00
Default : Да
Forced : Нет
Цветовой диапазон : Limited
Основные цвета : BT.709
Характеристики трансфера : BT.709
Коэффициенты матрицы : BT.709
Аудио
Идентификатор : 2
Формат : AC-3
Формат/Информация : Audio Coding 3
Идентификатор кодека : A_AC3
Продолжительность : 1 ч. 29 м.
Вид битрейта : Постоянный
Битрейт : 192 Кбит/сек
Каналы : 2 канала
Расположение каналов : Front: L R
Частота : 44,1 КГц
Частота кадров : 28,711 кадров/сек (1536 SPF)
Битовая глубина : 16 бит
Метод сжатия : С потерями
Размер потока : 124 Мбайт (11%)
ServiceKind/String : Complete Main
Default : Да
Forced : Нет




Показать сообщения:    

Текущее время: 19-Июн 08:21

Часовой пояс: UTC + 11


Вы не можете начинать темы
Вы не можете отвечать на сообщения
Вы не можете редактировать свои сообщения
Вы не можете удалять свои сообщения
Вы не можете голосовать в опросах
Вы не можете прикреплять файлы к сообщениям
Вы не можете скачивать файлы

Сайт не предоставляет электронные версии произведений, а занимается лишь коллекционированием и каталогизацией ссылок, присылаемых и публикуемых на форуме нашими читателями. Если вы являетесь правообладателем какого-либо представленного материала и не желаете, чтобы ссылка на него находилась в нашем каталоге, свяжитесь с нами, и мы незамедлительно удалим ее. Файлы для обмена на трекере предоставлены пользователями сайта, и администрация не несет ответственности за их содержание. Просьба не заливать файлы, защищенные авторскими правами, а также файлы нелегального содержания!