+100


Топ за 24 часа
 
 

[Цитировать]

-Ной / Noah (2014) BDRip [H.264/1080p-LQ]«Конец — это только начало»-Производство: США / Paramount Pictures
Жанр: драма, приключения, фэнтези
Режиссер: Даррен Аронофски
Продюсер: Даррен Аронофски, Скотт Франклин, Арнон Милчен
Актеры: Рассел Кроу, Рэй Уинстон, Эмма Уотсон, Кевин Дюран, Дженнифер Коннелли, Логан Лерман, Энтони Хопкинс, Марк Марголис, Ник Нолти, Дуглас Бут
Описание:
Библейские сюжеты давно и прочно вошли в нашу жизнь: вряд ли есть человек, не знающий о запретном плоде или о первородном грехе. Одной из наиболее известных историй, имеющих аналоги практически в любой религии и в мифологии разных народов, является история о Великом потопе — бедствии, которым Бог наказал человечество за его многочисленные грехи и покарал всех, кто не хотел жить по заветам Создателя.
Единственным праведным человеком на Земле был Ной — набожный отец семейства, которого начали посещать ужасные видения конца света. Поняв, что людей ждет неминуемая гибель, Ной принялся за строительство ковчега — гигантского корабля, который должен был защитить его семью и его самого от бушующих волн. Однако Ною пришлось бороться не только со стихией и собственными страхами, но и с вполне осязаемым человеческим злом: люди, прослышавшие о строительстве корабля и опасающиеся за свою жизнь, тоже захотели спастись. Только вот для них не было места в Ноевом ковчеге.

Возраст: 12+ (зрителям, достигшим 12 лет)
Рейтинг MPAA: PG-13 (детям до 13 лет просмотр нежелателен)

Релиз от: Bullit
Продолжительность: 02:17:53
Качество: BDRip 1080p-LQ
Перевод: Дублированный (iTunes)
Субтитры: Русские полные, форсированные (отдельно)
Видео: H.264/AVC, 1920x1040, (1.85:1), 5177 kbps, 23.976 fps
Аудио: AC3, 6 ch, 384 kbps - Русский

MediaInfo

General
Unique ID : 182512566358050665467481819609287057701 (0x894EA444FB9575F6BD77FDFACC6B6125)
Complete name : Ной (2014).mkv
Format : Matroska
Format version : Version 4 / Version 2
File size : 5.36 GiB
Duration : 2 h 17 min
Overall bit rate : 5 560 kb/s
Encoded date : UTC 2014-07-18 13:07:29
Writing application : mkvmerge v7.0.0 ('Where We Going') 64bit built on Jun 9 2014 15:16:27
Writing library : libebml v1.3.0 + libmatroska v1.4.1
Video
ID : 1
Format : AVC
Format/Info : Advanced Video Codec
Format profile : High@L4
Format settings : CABAC / 4 Ref Frames
Format settings, CABAC : Yes
Format settings, ReFrames : 4 frames
Codec ID : V_MPEG4/ISO/AVC
Duration : 2 h 17 min
Bit rate : 5 177 kb/s
Width : 1 920 pixels
Height : 1 040 pixels
Display aspect ratio : 1.85:1
Frame rate mode : Constant
Frame rate : 23.976 (24000/1001) FPS
Color space : YUV
Chroma subsampling : 4:2:0
Bit depth : 8 bits
Scan type : Progressive
Bits/(Pixel*Frame) : 0.108
Stream size : 4.98 GiB (93%)
Writing library : x264 core 142 r2431 ac76440
Encoding settings : cabac=1 / ref=4 / deblock=1:-3:-3 / analyse=0x3:0x133 / me=umh / subme=11 / psy=1 / psy_rd=1.00:0.00 / mixed_ref=1 / me_range=32 / chroma_me=1 / trellis=2 / 8x8dct=1 / cqm=0 / deadzone=21,11 / fast_pskip=0 / chroma_qp_offset=-4 / threads=18 / lookahead_threads=3 / sliced_threads=0 / nr=0 / decimate=0 / interlaced=0 / bluray_compat=0 / constrained_intra=0 / bframes=8 / b_pyramid=2 / b_adapt=2 / b_bias=0 / direct=3 / weightb=1 / open_gop=0 / weightp=2 / keyint=230 / keyint_min=22 / scenecut=40 / intra_refresh=0 / rc_lookahead=60 / rc=2pass / mbtree=1 / bitrate=5177 / ratetol=1.0 / qcomp=0.60 / qpmin=0 / qpmax=69 / qpstep=4 / cplxblur=20.0 / qblur=0.5 / ip_ratio=1.40 / aq=1:1.00
Language : English
Default : Yes
Forced : No
Audio
ID : 2
Format : AC-3
Format/Info : Audio Coding 3
Codec ID : A_AC3
Duration : 2 h 17 min
Bit rate mode : Constant
Bit rate : 384 kb/s
Channel(s) : 6 channels
Channel positions : Front: L C R, Side: L R, LFE
Sampling rate : 48.0 kHz
Frame rate : 31.250 FPS (1536 SPF)
Bit depth : 16 bits
Compression mode : Lossy
Stream size : 379 MiB (7%)
Title : DUB (iTunes), 384 kbps
Language : Russian
Service kind : Complete Main
Default : Yes
Forced : No
Скриншоты:




Показать сообщения:    

Текущее время: 23-Июн 13:35

Часовой пояс: UTC + 11


Вы не можете начинать темы
Вы не можете отвечать на сообщения
Вы не можете редактировать свои сообщения
Вы не можете удалять свои сообщения
Вы не можете голосовать в опросах
Вы не можете прикреплять файлы к сообщениям
Вы не можете скачивать файлы

Сайт не предоставляет электронные версии произведений, а занимается лишь коллекционированием и каталогизацией ссылок, присылаемых и публикуемых на форуме нашими читателями. Если вы являетесь правообладателем какого-либо представленного материала и не желаете, чтобы ссылка на него находилась в нашем каталоге, свяжитесь с нами, и мы незамедлительно удалим ее. Файлы для обмена на трекере предоставлены пользователями сайта, и администрация не несет ответственности за их содержание. Просьба не заливать файлы, защищенные авторскими правами, а также файлы нелегального содержания!