+100


Топ за 24 часа
 
 

[Цитировать]

-Дело храбрых / Only the Brave (2017) BDRip [H.264/1080p-LQ]«It's Not What Stands In Front Of You, It's Who Stands Beside You»-Производство: США / Black Label Media
Жанр: драма, биография
Режиссер: Джозеф Косински
Продюсер: Лоренцо Ди Бонавентура, Брюс Франклин, Эрик Хаусэм
Актеры: Джош Бролин, Майлз Теллер, Джефф Бриджес, Джеймс Бэдж Дэйл, Тейлор Китч, Дженнифер Коннелли, Скотт Хэйз, Алекс Расселл, Бен Харди, Натали Холл
Описание:
История о команде пожарных под названием Granite Mountain Hotshots, столкнувшихся в Аризоне с одним из самых смертоносных пожаров в истории.

Возраст: 16+ (зрителям, достигшим 16 лет)
Рейтинг MPAA: PG-13 (детям до 13 лет просмотр нежелателен)
Дата мировой премьеры: 18 октября 2017
Премьера (РФ): 9 ноября 2017, «Централ Партнершип»

Релиз от: Magnetto83
Продолжительность: 02:14:03
Качество: BDRip 1080p-LQ
Перевод: Дублированный (iTunes)
Субтитры: Русские (полные), Английские (Full+SHD+SDH-Colored)
Видео: H.264/AVC, 1920x804, (2.40:1), 4215 kbps, 23.976 fps
Аудио: AC3, 6 ch, 384 kbps - Русский

MediaInfo

General
Unique ID : 198335810841981404706620699603379824325 (0x9536167474EF9B1FA383C50BBEF626C5)
Complete name : Дело Храбрых 2017 Dub Rus iTunes BDRip 1080p.mkv
Format : Matroska
Format version : Version 2
File size : 4.31 GiB
Duration : 2 h 14 min
Overall bit rate : 4 602 kb/s
Movie name : Дело Храбрых 2017 Dub Rus iTunes BDRip 1080p
Encoded date : UTC 2018-02-23 08:24:32
Writing application : mkvmerge v5.2.0 ('I can't explain') built on Dec 18 2011 18:12:03
Writing library : libebml v1.2.3 + libmatroska v1.3.0
Cover : Yes
Attachments : Cover
Video
ID : 1
Format : AVC
Format/Info : Advanced Video Codec
Format profile : High@L4.1
Format settings : CABAC / 5 Ref Frames
Format settings, CABAC : Yes
Format settings, ReFrames : 5 frames
Codec ID : V_MPEG4/ISO/AVC
Duration : 2 h 14 min
Bit rate : 4 215 kb/s
Width : 1 920 pixels
Height : 804 pixels
Display aspect ratio : 2.40:1
Frame rate mode : Constant
Frame rate : 23.976 FPS
Color space : YUV
Chroma subsampling : 4:2:0
Bit depth : 8 bits
Scan type : Progressive
Bits/(Pixel*Frame) : 0.114
Stream size : 3.86 GiB (90%)
Title : Дело Храбрых 2017 BDRip 1080p By Magnetto 83
Writing library : x264 core 146 r2538 121396c
Encoding settings : cabac=1 / ref=5 / deblock=1:-1:-1 / analyse=0x3:0x113 / me=umh / subme=10 / psy=1 / psy_rd=1.00:0.00 / mixed_ref=1 / me_range=32 / chroma_me=1 / trellis=2 / 8x8dct=1 / cqm=0 / deadzone=21,11 / fast_pskip=0 / chroma_qp_offset=-2 / threads=3 / lookahead_threads=1 / sliced_threads=0 / nr=0 / decimate=1 / interlaced=0 / bluray_compat=0 / constrained_intra=0 / bframes=8 / b_pyramid=2 / b_adapt=2 / b_bias=0 / direct=3 / weightb=1 / open_gop=0 / weightp=2 / keyint=250 / keyint_min=23 / scenecut=40 / intra_refresh=0 / rc=2pass / mbtree=0 / bitrate=4215 / ratetol=1.0 / qcomp=0.60 / qpmin=0 / qpmax=69 / qpstep=4 / cplxblur=20.0 / qblur=0.5 / ip_ratio=1.40 / pb_ratio=1.30 / aq=2:1.00
Language : English
Default : Yes
Forced : No
Audio
ID : 2
Format : AC-3
Format/Info : Audio Coding 3
Codec ID : A_AC3
Duration : 2 h 14 min
Bit rate mode : Constant
Bit rate : 384 kb/s
Channel(s) : 6 channels
Channel positions : Front: L C R, Side: L R, LFE
Sampling rate : 48.0 kHz
Frame rate : 31.250 FPS (1536 SPF)
Bit depth : 16 bits
Compression mode : Lossy
Stream size : 368 MiB (8%)
Title : DD 5.1 @ 384 kbps - Дубляж | iTunes |
Language : Russian
Service kind : Complete Main
Default : Yes
Forced : No
Text #1
ID : 3
Format : UTF-8
Codec ID : S_TEXT/UTF8
Codec ID/Info : UTF-8 Plain Text
Title : Полные
Language : Russian
Default : No
Forced : No
Text #2
ID : 4
Format : UTF-8
Codec ID : S_TEXT/UTF8
Codec ID/Info : UTF-8 Plain Text
Title : Full
Language : English
Default : No
Forced : No
Text #3
ID : 5
Format : UTF-8
Codec ID : S_TEXT/UTF8
Codec ID/Info : UTF-8 Plain Text
Title : SDH
Language : English
Default : No
Forced : No
Text #4
ID : 6
Format : UTF-8
Codec ID : S_TEXT/UTF8
Codec ID/Info : UTF-8 Plain Text
Title : SDH-Colored
Language : English
Default : No
Forced : No
Menu
00:00:00.000 : en:00:00:00.000
00:06:39.107 : en:00:06:39.107
00:16:14.891 : en:00:16:14.891
00:26:30.297 : en:00:26:30.297
00:34:26.856 : en:00:34:26.856
00:43:54.298 : en:00:43:54.298
00:51:29.336 : en:00:51:29.336
00:59:18.430 : en:00:59:18.430
01:08:27.312 : en:01:08:27.312
01:16:19.366 : en:01:16:19.366
01:24:16.468 : en:01:24:16.468
01:32:51.524 : en:01:32:51.524
01:39:07.567 : en:01:39:07.567
01:45:11.972 : en:01:45:11.972
01:52:54.935 : en:01:52:54.935
02:02:04.776 : en:02:02:04.776
Скриншоты:




Показать сообщения:    

Текущее время: 23-Июн 13:36

Часовой пояс: UTC + 11


Вы не можете начинать темы
Вы не можете отвечать на сообщения
Вы не можете редактировать свои сообщения
Вы не можете удалять свои сообщения
Вы не можете голосовать в опросах
Вы не можете прикреплять файлы к сообщениям
Вы не можете скачивать файлы

Сайт не предоставляет электронные версии произведений, а занимается лишь коллекционированием и каталогизацией ссылок, присылаемых и публикуемых на форуме нашими читателями. Если вы являетесь правообладателем какого-либо представленного материала и не желаете, чтобы ссылка на него находилась в нашем каталоге, свяжитесь с нами, и мы незамедлительно удалим ее. Файлы для обмена на трекере предоставлены пользователями сайта, и администрация не несет ответственности за их содержание. Просьба не заливать файлы, защищенные авторскими правами, а также файлы нелегального содержания!