+100


Топ за 24 часа
 
 

[Цитировать]

Падение Олимпа / Olympus Has Fallen Год выпуска: 2013
Производство: США
Жанр: Боевик, триллер
Продолжительность: 01:59:08
Перевод: Авторский (одноголосый) А.Гаврилов
Оригинальный аудиопоток: английский
Субтитры: отсутствуют
Режиссер: Антуан Фукуа / Antoine Fuqua
В ролях:
Джерард Батлер / Gerard Butler, Аарон Экхарт / Aaron Eckhart, Морган Фриман / Morgan Freeman, Эшли Джадд / Ashley Judd, Мелисса Лео / Melissa Leo, Финли Якобсен / Finley Jacobsen, Дилан МакДермотт / Dylan McDermott, Рик Юн / Rick Yune, Анджела Бассетт / Angela Bassett, Рада Митчелл / Radha Mitchell, Роберт Форстер / Robert Forster ...
Описание:
Когда на Белый Дом нападают террористы, а президента берут в заложники, дискредитированный бывший охранник главы государства Майк Бэннинг оказывается внутри захваченного здания. И теперь он единственный, кто сможет спасти президента…
Качество видео: HDRip
Контейнер: AVI
Видео кодек: XviD
Аудио кодек: AC3
Видео: 720x304, 23.976 fps, ~1550 kbps, 0.29 bit/pixel
Аудио #1: Dolby AC3 / 5.1 / 48 kHz / 448 kbps ( А.Гаврилов )
Аудио #2: Dolby AC3 / 5.1 / 48 kHz / 448 kbps ( оригинал )

Знаете ли вы, что...

Это четвертый фильм, в котором Морган Фриман и Эшли Джадд снялись вместе, но это первый раз, когда их персонажи не появляются вместе на экране. Первыми тремя их совместными фильмами были «Целуя девушек» (1997), «Особо тяжкие преступления» (2002) и «История дельфина» (2011).
Джерард Батлер однажды уже рассматривался на роль агента ЦРУ, Митча Раппа, в так и не вышедшей экранизации романа Финса Флинна (Vince Flynn) «Согласие на убийство» (Consent to Kill). Первый роман, в котором появляется персонаж Митч Рапп, — это Transfer of Power, сюжет которого чрезвычайно похож на сюжет фильма «Падение Олимпа» (2013). В нем террористы захватывают контроль над Белым домом, и Рапп должен добраться до президента, укрывающегося в бункере, раньше террористов.
Во время съемок сцен в Белом доме в Луизиане было настолько жарко, что представитель общества защиты животных настоял на том, чтобы немецких овчарок, которых снимали в качестве сторожевых псов К-9, помещали в вагон с кондиционированием воздуха в промежутках между дублями.
Изначально в роли первой леди студия хотела видеть Вайнону Райдер.
Морган Фриман снимался в сцене в комнате кризисных ситуаций в самый разгар интернет-слуха о его смерти. Он часто начинал съемочный день, напевая остальным актерам старые джаз-песни, и этим умилял ничего не подозревающую съемочную группу.
Роль начальника Секретной службы первоначально писалась под мужчину. Затем режиссер Антуан Фукуа убедил Анджелу Бассетт пройти прослушивание, после чего роль переписали под женщину.
Это второй раз, когда Дилан МакДермотт сыграл агента Секретной службы. Аналогичную роль он исполнил в фильме «На линии огня» (1993).
Выбор Северной Кореи в качестве злодея в этом фильме стал некоторого рода провидением. В 2013 году появилась некая напряженность в отношениях между КНДР и США. Для сценария этот выбор был сделан годами ранее. Режиссер Антуан Фукуа сказал в интервью, что не хотел, чтобы злодеями были люди с Ближнего Востока, потому что это уже избитая тема. И Северная Корея была интересна ему, потому что эта страна полностью закрыта от внешнего мира и создает такое впечатление, как будто никто не может предположить, что они хотят или на что способны.
Ошибки в фильме
Белый дом на самом деле не такого ярко-белого цвета, как показано в фильме. А лужайка гораздо длиннее.
В начале фильма, после того как лимузин с первой леди в нем падает в реку с моста, он разбивается о замерзшую поверхность реки и не тонет. Спустя секунду, когда камера меняет ракурс, видно лишь отверстие во льду, а самого лимузина нет.
После того как Майк Беннинг выходит из кафе с начальником Секретной службы Линн Якобс, он выглядит чисто побритым, затем он звонит жене (все еще побритый), но на его звонок никто не отвечает. Тогда он оставляет сообщение, и в этом моменте очевидно, что он уже выглядит небритым.
В фильме есть несколько моментов, когда в новостях неправильно отображается название Белого дома: Whitehouse вместо White House.
Слишком невероятным выглядит тот факт, что, после того как Майк 18 месяцев не был в Белом доме, все коды блокировки остались такими же, какими он их помнит.
Когда Майк и Кан говорят друг с другом через веб-камеру, со стороны Кана видно, что Майк смотрит прямо на экран, но со стороны Майка заметно, что его голова повернута так, чтобы смотреть прямо в камеру.
После того как оружие было уничтожено, в новостях не было видно дыма над зданием. А в более поздней сцене заметно, что он прямо валит из него.

Media Info

Видео
Идентификатор : 0
Формат : MPEG-4 Visual
Профиль формата : Advanced Simple@L5
Параметр BVOP формата : 1
Параметр QPel формата : Нет
Параметр GMC формата : Без точки перехода
Параметр матрицы формата : Выборочная
Идентификатор кодека : XVID
Идентификатор кодека/Подсказка : XviD
Продолжительность : 1 ч. 59 м.
Битрейт : 1550 Кбит/сек
Ширина : 720 пикселей
Высота : 304 пикселя
Соотношение сторон : 2,35:1
Частота кадров : 23,976 кадра/сек
Цветовое пространство : YUV
Субдискретизация насыщенности : 4:2:0
Битовая глубина : 8 бит
Тип развёртки : Прогрессивная
Метод сжатия : С потерями
Бит/(Пиксели*Кадры) : 0.295
Размер потока : 1,29 Гбайт (63%)
Библиотека кодирования : XviD 73
Аудио #1
Идентификатор : 1
Формат : AC-3
Формат/Информация : Audio Coding 3
Расширение режима : CM (complete main)
Идентификатор кодека : 2000
Продолжительность : 1 ч. 59 м.
Вид битрейта : Постоянный
Битрейт : 448 Кбит/сек
Каналы : 6 каналов
Расположение каналов : Front: L C R, Side: L R, LFE
Частота : 48,0 КГц
Битовая глубина : 16 бит
Метод сжатия : С потерями
Размер потока : 382 Мбайт (18%)
Выравнивание : Разделение по промежуткам
Продолжительность промежутка : 42 мс. (1,00 видеокадр)
Заголовок : AVO ( А.Гаврилов )
Аудио #2
Идентификатор : 2
Формат : AC-3
Формат/Информация : Audio Coding 3
Расширение режима : CM (complete main)
Идентификатор кодека : 2000
Продолжительность : 1 ч. 59 м.
Вид битрейта : Постоянный
Битрейт : 448 Кбит/сек
Каналы : 6 каналов
Расположение каналов : Front: L C R, Side: L R, LFE
Частота : 48,0 КГц
Битовая глубина : 16 бит
Метод сжатия : С потерями
Размер потока : 382 Мбайт (18%)
Выравнивание : Разделение по промежуткам
Продолжительность промежутка : 42 мс. (1,00 видеокадр)
Заголовок : Оригинал

Скриншоты

Доп. информация

За BDRip [720p] спасибо ChuckNorriss
За перевод Гаврилова большое спасибо пользователям форума forum.hdtracker.org: -Джосс-, Brown15, chef&chef, Chistobaev, denis_mgn_1987, dunhill200, edsz, feldeger, fly32, foxlight, GaryH, Guyver, Hattori Hanzo, karantin66, kinobbk, kovadim, KpucTo161, Letyoha3, Loki, milocerd0v, nimph, Pain_70, rydanes, SavineX, shitman82, Skibichok , therox, v111o, vadamk, Vimann, Xerman13, YoGuRt-82, zeleniydzhan, ZeRoNe, Диммон, _MyxAmoP_ , lexal, hulahup, carter64, Tio, Role, Tehnar, Rolly Tyler .
Дороги с моих раздач отдельно не раздаю.

Если маленькая скорость или вообще никого нет на раздаче:

1. Рад видеть вас на своей раздаче.
2. Если у вас хорошая скорость интернета, то это не означает, что и у всех такая.
Даже если скорость моего канала хорошая, то могут возникнуть проблемы другого плана (Нестабильность работы сайта, проблемы с провайдером, неполадки с "железом"). Поэтому просьба отнестись с пониманием и набраться терпения.
3. Если нет никого на раздаче - напишите мне ЛС. При появлении в сети по возможности помогу вам скачать. Пока меня нет, а вам срочно хочется - попробуйте написать ЛС скачавшим. Не помогло - подождите когда кто нибудь встанет на раздачу. Не надо мусорить никому ненужными постами.
4. Мне и многим другим пользователям, которые будут скачивать фильм, совсем не интересно знать о чужих проблемах со скоростью или что вы вообще не можете скачать. Поэтому свои проблемы решайте сами. По тихому.
Надеюсь на вашу сознательность и мне не придётся отвечать на данные вопросы в более жёсткой форме.
Желаю вам хорошей скорости скачивания и приятного просмотра.
-




Показать сообщения:    

Текущее время: 07-Дек 06:49

Часовой пояс: UTC + 11


Вы не можете начинать темы
Вы не можете отвечать на сообщения
Вы не можете редактировать свои сообщения
Вы не можете удалять свои сообщения
Вы не можете голосовать в опросах
Вы не можете прикреплять файлы к сообщениям
Вы не можете скачивать файлы

Сайт не предоставляет электронные версии произведений, а занимается лишь коллекционированием и каталогизацией ссылок, присылаемых и публикуемых на форуме нашими читателями. Если вы являетесь правообладателем какого-либо представленного материала и не желаете, чтобы ссылка на него находилась в нашем каталоге, свяжитесь с нами, и мы незамедлительно удалим ее. Файлы для обмена на трекере предоставлены пользователями сайта, и администрация не несет ответственности за их содержание. Просьба не заливать файлы, защищенные авторскими правами, а также файлы нелегального содержания!