+100


Топ за 24 часа
 
 

[Цитировать]

-Дикарь / Gauguin - Voyage de Tahiti (2017) BDRip-Производство: Франция / Move Movie, StudioCanal, NJJ Entertainment
Жанр: Драма, мелодрама, биография
Режиссер: Эдуард Делюк
Актеры: Венсан Кассель, Тухэй Адамс, Малик Зиди, Пуа-Тай Хикутини, Пернилла Бергендорф, Марк Барбе, Пол Жансон, Седрик Экхаут, Самуэль Жуи, Скали Делпейрат
Описание:
Устав от богемной жизни Парижа, Поль Гоген отправляется на другой конец света. В поисках вдохновения и новых красок жизни он оказывается на Таити. Там он встречает Техуру — дикарку, богиню, объект непреодолимой страсти и испепеляющей ревности, музу, которой мир обязан появлением гениальных творений великого художника.

Возраст: 18+ (зрителям, достигшим 18 лет. запрещено для детей)
Дата мировой премьеры: 20 сентября 2017
Дата премьеры в России: 2 ноября 2017
Цифровой релиз: 02 марта 2018

Продолжительность: 01:40:51
Качество видео: BDRip
Перевод: Дублированный (iTunes)
Субтитры: Отсутствуют
Видео: AVC, 1024x432, 2 448 Kbps
Аудио #1: AC-3, 6 ch, 384 Kbps | Русский
Аудио #2: AC-3, 6 ch, 384 Kbps | Французский

MediaInfo

Общее
Уникальный идентификатор : 172687656000862945608741510417764480934 (0x81EA6ECA222456358120A0E2503A77A6)
Полное имя : E:\NNM\Дикарь\Gauguin 2017 BDRip AVC NNM-Club.mkv
Формат : Matroska
Версия формата : Version 4 / Version 2
Размер файла : 2,27 Гбайт
Продолжительность : 1 ч. 40 м.
Общий поток : 3215 Кбит/сек
Название фильма : For NNM-Club
Дата кодирования : UTC 2018-03-09 22:58:08
Программа кодирования : mkvmerge v6.9.1 ('Blue Panther') 32bit built on Apr 18 2014 18:15:44
Библиотека кодирования : libebml v1.3.0 + libmatroska v1.4.1
Видео
Идентификатор : 1
Формат : AVC
Формат/Информация : Advanced Video Codec
Профиль формата : High@L4.1
Настройки формата : CABAC / 10 Ref Frames
Параметр CABAC формата : Да
Параметр RefFrames формата : 10 кадров
Идентификатор кодека : V_MPEG4/ISO/AVC
Продолжительность : 1 ч. 40 м.
Битрейт : 2448 Кбит/сек
Ширина : 1024 пикселя
Высота : 432 пикселя
Соотношение сторон : 2,40:1
Режим частоты кадров : Постоянный
Частота кадров : 24,000 кадра/сек
Цветовое пространство : YUV
Субдискретизация насыщенности : 4:2:0
Битовая глубина : 8 бит
Тип развёртки : Прогрессивная
Бит/(Пиксели*Кадры) : 0.231
Размер потока : 1,68 Гбайт (74%)
Библиотека кодирования : x264 core 146 r2538 121396c
Настройки программы : cabac=1 / ref=10 / deblock=1:-3:-3 / analyse=0x3:0x113 / me=umh / subme=11 / psy=1 / psy_rd=1.00:0.15 / mixed_ref=1 / me_range=32 / chroma_me=1 / trellis=2 / 8x8dct=1 / cqm=0 / deadzone=21,11 / fast_pskip=0 / chroma_qp_offset=-3 / threads=12 / lookahead_threads=2 / sliced_threads=0 / nr=0 / decimate=0 / interlaced=0 / bluray_compat=0 / constrained_intra=0 / bframes=8 / b_pyramid=2 / b_adapt=2 / b_bias=0 / direct=1 / weightb=1 / open_gop=0 / weightp=2 / keyint=240 / keyint_min=23 / scenecut=40 / intra_refresh=0 / rc_lookahead=40 / rc=2pass / mbtree=1 / bitrate=2448 / ratetol=1.0 / qcomp=0.60 / qpmin=0 / qpmax=69 / qpstep=4 / cplxblur=20.0 / qblur=0.5 / vbv_maxrate=50000 / vbv_bufsize=62500 / nal_hrd=none / filler=0 / ip_ratio=1.40 / aq=1:0.90
Default : Да
Forced : Нет
Аудио #1
Идентификатор : 2
Формат : AC-3
Формат/Информация : Audio Coding 3
Идентификатор кодека : A_AC3
Продолжительность : 1 ч. 40 м.
Вид битрейта : Постоянный
Битрейт : 384 Кбит/сек
Каналы : 6 каналов
Расположение каналов : Front: L C R, Side: L R, LFE
Частота : 48,0 КГц
Частота кадров : 31,250 кадров/сек (1536 SPF)
Битовая глубина : 16 бит
Метод сжатия : С потерями
Размер потока : 277 Мбайт (12%)
Заголовок : Rus
Язык : Russian
ServiceKind/String : Complete Main
Default : Да
Forced : Нет
Аудио #2
Идентификатор : 3
Формат : AC-3
Формат/Информация : Audio Coding 3
Идентификатор кодека : A_AC3
Продолжительность : 1 ч. 40 м.
Вид битрейта : Постоянный
Битрейт : 384 Кбит/сек
Каналы : 6 каналов
Расположение каналов : Front: L C R, Side: L R, LFE
Частота : 48,0 КГц
Частота кадров : 31,250 кадров/сек (1536 SPF)
Битовая глубина : 16 бит
Метод сжатия : С потерями
Размер потока : 277 Мбайт (12%)
Заголовок : Fre
Язык : French
ServiceKind/String : Complete Main
Default : Нет
Forced : Нет
Скриншоты:




Показать сообщения:    

Текущее время: 24-Июн 04:49

Часовой пояс: UTC + 11


Вы не можете начинать темы
Вы не можете отвечать на сообщения
Вы не можете редактировать свои сообщения
Вы не можете удалять свои сообщения
Вы не можете голосовать в опросах
Вы не можете прикреплять файлы к сообщениям
Вы не можете скачивать файлы

Сайт не предоставляет электронные версии произведений, а занимается лишь коллекционированием и каталогизацией ссылок, присылаемых и публикуемых на форуме нашими читателями. Если вы являетесь правообладателем какого-либо представленного материала и не желаете, чтобы ссылка на него находилась в нашем каталоге, свяжитесь с нами, и мы незамедлительно удалим ее. Файлы для обмена на трекере предоставлены пользователями сайта, и администрация не несет ответственности за их содержание. Просьба не заливать файлы, защищенные авторскими правами, а также файлы нелегального содержания!