+100


 

[Цитировать]

- Интервью Владимира Путина телеканалу NBC (10.03.2018) WEB-DL -Производство: США / NBC, Россия / Президент.РФ
Жанр: Политика
Участники: Мегин Келли, Владимир Путин
Описание:
Владимир Путин ответил на вопросы журналистки американского телеканала NBC Мегин Келли. Интервью записывалось 1 марта в Кремле и 2 марта в Калининграде. Самые волнующие мировые темы, мнимое вмешательство России в выборы президента в США, внутриполитическая обстановка в России.
Продолжительность: 01:28:46
Качество видео: WEB-DL
Видео: AVC/H.264, 1280x720 (16:9), ~3000 Kbps
Аудио: AAC, 2 ch, 128 Kbps

MediaInfo

Субтитры: Отсутствуют
General
Unique ID : 316213759809739036301608512325187999622 (0xEDE48E0CE8DBE663A8CA6AD2225B1786)
Complete name : D:\Film\Интервью Владимира Путина телеканалу NBC 2018.mkv
Format : Matroska
Format version : Version 4 / Version 2
File size : 1.94 GiB
Duration : 1 h 28 min
Overall bit rate : 3 134 kb/s
Encoded date : UTC 2018-03-10 10:45:16
Writing application : mkvmerge v21.0.0 ('Tardigrades Will Inherit The Earth') 64-bit
Writing library : libebml v1.3.5 + libmatroska v1.4.8
Cover : Yes
Attachments : cover.png
Video
ID : 1
Format : AVC
Format/Info : Advanced Video Codec
Format profile : Main@L3.1
Format settings : 2 Ref Frames
Format settings, CABAC : No
Format settings, RefFrames : 2 frames
Codec ID : V_MPEG4/ISO/AVC
Duration : 1 h 28 min
Bit rate : 3 002 kb/s
Width : 1 280 pixels
Height : 720 pixels
Display aspect ratio : 16:9
Frame rate mode : Constant
Frame rate : 25.000 FPS
Color space : YUV
Chroma subsampling : 4:2:0
Bit depth : 8 bits
Scan type : Progressive
Bits/(Pixel*Frame) : 0.130
Stream size : 1.86 GiB (96%)
Language : Russian
Default : Yes
Forced : No
Color range : Limited
Audio
ID : 2
Format : AAC
Format/Info : Advanced Audio Codec
Format profile : LC
Codec ID : A_AAC-2
Duration : 1 h 28 min
Bit rate : 128 kb/s
Channel(s) : 2 channels
Channel positions : Front: L R
Sampling rate : 48.0 kHz
Frame rate : 46.875 FPS (1024 SPF)
Compression mode : Lossy
Delay relative to video : -40 ms
Stream size : 81.3 MiB (4%)
Language : Russian
Default : Yes
Forced : No
Скриншоты:




Показать сообщения:    

Текущее время: 23-Июн 13:29

Часовой пояс: UTC + 11


Вы не можете начинать темы
Вы не можете отвечать на сообщения
Вы не можете редактировать свои сообщения
Вы не можете удалять свои сообщения
Вы не можете голосовать в опросах
Вы не можете прикреплять файлы к сообщениям
Вы не можете скачивать файлы

Сайт не предоставляет электронные версии произведений, а занимается лишь коллекционированием и каталогизацией ссылок, присылаемых и публикуемых на форуме нашими читателями. Если вы являетесь правообладателем какого-либо представленного материала и не желаете, чтобы ссылка на него находилась в нашем каталоге, свяжитесь с нами, и мы незамедлительно удалим ее. Файлы для обмена на трекере предоставлены пользователями сайта, и администрация не несет ответственности за их содержание. Просьба не заливать файлы, защищенные авторскими правами, а также файлы нелегального содержания!