+100


Топ за 24 часа
 
 

[Цитировать]

- Линия огня (2017) HDTVRip (серии 1-8 из 8) -Производство: Россия / «Киностудия КИТ»
Жанр: драма, криминал
Режиссер: Александр Калугин
Актеры: Алексей Барабаш, Ирина Вальц, Михаил Стенин, Анастасия Матвеева, Сергей Загребнев, Сергей Погосян, Руслан Ягудин, Илья Соколовский, Сергей Цепов, Александр Фисенко и др.
Описание:
Начальник караула пожарной части Токарев, в прошлом следователь, неофициально расследует халатность с закупкой дыхательных аппаратов, из-за которой стал инвалидом его коллега. Следы ведут к его бывшему другу – бизнесмену Колосову, компания которого поставляет оборудование по всей стране. Но Колосова убивают, обвинив в убийстве его жену. Перед своей смертью Колосов, пользуясь связями, устроил своего приёмного сына Дениса в расчёт к Токареву, зная, что бывший друг не бросит в беде Дениса даже несмотря на их натянутые отношения...

Возраст: 16+ (зрителям, достигшим 16 лет)
Дата российской премьеры: 8 марта 2018 (НТВ)
Продолжительность: ~00:50:00 серия
Качество видео: HDTVRip
Видео: Xvid, 720x400 (16:9), ~1393 Kbps
Аудио: AC3, 2 ch, 192 kbps

MediaInfo

Общее
Полное имя : D:\Мои фильмы\Linija_ognja_1-8iz8_2018_XviD_HDTVRip\Linija_ognja_1.avi
Формат : AVI
Формат/Информация : Audio Video Interleave
Размер файла : 555 Мбайт
Продолжительность : 48 м. 41 с.
Общий поток : 1595 Кбит/сек
Программа кодирования : VirtualDubMod 1.5.10.3 www.virtualdub-fr.org || (build 2550/release)
Библиотека кодирования : VirtualDub build 40716/release
Видео
Идентификатор : 0
Формат : MPEG-4 Visual
Профиль формата : Advanced Simple@L5
Параметр BVOP формата : 2
Параметр QPel формата : Нет
Параметр GMC формата : Без точки перехода
Параметр матрицы формата : Default (H.263)
Идентификатор кодека : XVID
Идентификатор кодека/Подсказка : XviD
Продолжительность : 48 м. 41 с.
Битрейт : 1393 Кбит/сек
Ширина : 720 пикселей
Высота : 400 пикселей
Соотношение сторон : 16:9
Частота кадров : 25,000 кадров/сек
Цветовое пространство : YUV
Субдискретизация насыщенности : 4:2:0
Битовая глубина : 8 бит
Тип развёртки : Прогрессивная
Метод сжатия : С потерями
Бит/(Пиксели*Кадры) : 0.194
Размер потока : 485 Мбайт (87%)
Библиотека кодирования : XviD 67
Аудио
Идентификатор : 1
Формат : AC-3
Формат/Информация : Audio Coding 3
Параметр Endianness формата : Big
Идентификатор кодека : 2000
Продолжительность : 48 м. 41 с.
Вид битрейта : Постоянный
Битрейт : 192 Кбит/сек
Каналы : 2 канала
Расположение каналов : Front: L R
Частота : 48,0 КГц
Частота кадров : 31,250 кадров/сек (1536 SPF)
Битовая глубина : 16 бит
Метод сжатия : С потерями
Размер потока : 66,9 Мбайт (12%)
Выравнивание : Соединение по промежуткам
Продолжительность промежутка : 40 мс. (1,00 видеокадр)
Время предзагрузки промежутка : 512 мс.
ServiceKind/String : Complete Main
Скриншоты:




Показать сообщения:    

Текущее время: 20-Июн 11:21

Часовой пояс: UTC + 11


Вы не можете начинать темы
Вы не можете отвечать на сообщения
Вы не можете редактировать свои сообщения
Вы не можете удалять свои сообщения
Вы не можете голосовать в опросах
Вы не можете прикреплять файлы к сообщениям
Вы не можете скачивать файлы

Сайт не предоставляет электронные версии произведений, а занимается лишь коллекционированием и каталогизацией ссылок, присылаемых и публикуемых на форуме нашими читателями. Если вы являетесь правообладателем какого-либо представленного материала и не желаете, чтобы ссылка на него находилась в нашем каталоге, свяжитесь с нами, и мы незамедлительно удалим ее. Файлы для обмена на трекере предоставлены пользователями сайта, и администрация не несет ответственности за их содержание. Просьба не заливать файлы, защищенные авторскими правами, а также файлы нелегального содержания!