+100


 

[Цитировать]

- Трон эльфов / Throne of Elves (2016) BDRip [H.264/720p]-Производство: Китай, США / Shanghai Mijia Media, Beijing Enlight Pictures, Mili Entertainment
Жанр: мультфильм, фентези, приключения
Режиссер: И Гэ, Сун Юэфэн
Персонажи: Эшли Боеттчер, Гилберт Боус, Гэвин Хаммон, Джули Натансон, Джон Олсон, Райан Поттер, Енн Рейтел, Кевин Майкл Ричардсон, Аника Нони Роуз, Стефани Ше
Описание:
Спустя два года после событий первого фильма юный Ламберт получает послание из Страны Эльфов о том, что состоится свадьба принцессы, на которую он также приглашен. Обрадованный возможностью вновь увидеться с молодой эльфийкой Лийей, он собирается в путь на воздушном корабле. В краю эльфов между тем не все спокойно - владычица Темных Эльфов Елена планирует нарушить свадебную церемонию, чтобы, застав врасплох придворных, захватить древний артефакт Альтеры - кристалл Черного Дракона.

Возраст: 6+ (зрителям, достигшим 6 лет)
Дата мировой премьеры: 31 июля 2016
Дата российской премьеры: 8 февраля 2018, «Кинологистика»
цифровой релиз: 08 марта 2018, «НД Плэй»
Продолжительность: 01:38:55
Качество видео: BDRip 720p
Перевод: Дублированный
Субтитры: Английские, немецкие
Видео: AVC/H.264, 1280x720, ~5500 Kbps
Аудио #1: AC3, 6 ch, 384 Kbps | Русский
Аудио #2: AC3, 6 ch, 640 Kbps | Английский

MediaInfo

Complete name : THRN_F_LVS_(2016)_BDRIP_720P -BLUEBIRD.mkv
Format : Matroska
Format version : Version 4 / Version 2
File size : 4.51 GiB
Duration : 1 h 38 min
Overall bit rate : 6 526 kb/s
Movie name : THRONE_OF_ELVES_(2016)_BDRIP_720P -BLUEBIRD
Encoded date : UTC 2018-03-09 08:19:39
Writing application : mkvmerge v20.0.0 ('I Am The Sun') 64-bit
Writing library : libebml v1.3.5 + libmatroska v1.4.8
Video
ID : 1
Format : AVC
Format/Info : Advanced Video Codec
Format profile : High@L4.1
Format settings : CABAC / 9 Ref Frames
Format settings, CABAC : Yes
Format settings, RefFrames : 9 frames
Codec ID : V_MPEG4/ISO/AVC
Duration : 1 h 38 min
Bit rate : 5 500 kb/s
Width : 1 280 pixels
Height : 720 pixels
Display aspect ratio : 16:9
Frame rate mode : Constant
Frame rate : 23.976 (24000/1001) FPS
Color space : YUV
Chroma subsampling : 4:2:0
Bit depth : 8 bits
Scan type : Progressive
Bits/(Pixel*Frame) : 0.249
Stream size : 3.80 GiB (84%)
Title : THRN_F_LVS_(2016)_BDRIP_720P -HDChina
Writing library : x264 core 148 r2744kMod b97ae06
Encoding settings : cabac=1 / ref=9 / deblock=1:-1:-1 / analyse=0x3:0x133 / me=umh / subme=11 / psy=1 / fade_compensate=0.00 / psy_rd=0.80:0.00 / mixed_ref=1 / me_range=48 / chroma_me=1 / trellis=2 / 8x8dct=1 / cqm=0 / deadzone=21,11 / fast_pskip=0 / chroma_qp_offset=-2 / threads=22 / lookahead_threads=3 / sliced_threads=0 / nr=0 / decimate=0 / interlaced=0 / bluray_compat=0 / constrained_intra=0 / bframes=8 / b_pyramid=2 / b_adapt=2 / b_bias=0 / direct=3 / weightb=1 / open_gop=0 / weightp=2 / keyint=240 / keyint_min=2 / scenecut=40 / intra_refresh=0 / rc_lookahead=0 / rc=2pass / mbtree=0 / bitrate=5500 / ratetol=1.0 / qcomp=0.70 / qpmin=0 / qpmax=69 / qpstep=4 / cplxblur=20.0 / qblur=0.5 / vbv_maxrate=50000 / vbv_bufsize=30000 / nal_hrd=none / filler=0 / ip_ratio=1.30 / pb_ratio=1.20 / aq=3:1.10
Language : Chinese
Default : Yes
Forced : No
Audio #1
ID : 2
Format : AC-3
Format/Info : Audio Coding 3
Codec ID : A_AC3
Duration : 1 h 38 min
Bit rate mode : Constant
Bit rate : 384 kb/s
Channel(s) : 6 channels
Channel positions : Front: L C R, Side: L R, LFE
Sampling rate : 48.0 kHz
Frame rate : 31.250 FPS (1536 SPF)
Bit depth : 16 bits
Compression mode : Lossy
Stream size : 272 MiB (6%)
Title : iTunes
Language : Russian
Service kind : Complete Main
Default : Yes
Forced : No
Audio #2
ID : 3
Format : AC-3
Format/Info : Audio Coding 3
Codec ID : A_AC3
Duration : 1 h 38 min
Bit rate mode : Constant
Bit rate : 640 kb/s
Channel(s) : 6 channels
Channel positions : Front: L C R, Side: L R, LFE
Sampling rate : 48.0 kHz
Frame rate : 31.250 FPS (1536 SPF)
Bit depth : 16 bits
Compression mode : Lossy
Stream size : 453 MiB (10%)
Language : English
Service kind : Complete Main
Default : No
Forced : No
Text #1
ID : 4
Format : UTF-8
Codec ID : S_TEXT/UTF8
Codec ID/Info : UTF-8 Plain Text
Duration : 1 h 29 min
Bit rate : 32 b/s
Count of elements : 878
Stream size : 21.3 KiB (0%)
Language : English
Default : No
Forced : No
Text #2
ID : 5
Format : UTF-8
Codec ID : S_TEXT/UTF8
Codec ID/Info : UTF-8 Plain Text
Duration : 1 h 29 min
Bit rate : 46 b/s
Count of elements : 691
Stream size : 30.2 KiB (0%)
Language : German
Default : No
Forced : No
Menu
00:00:00.000 : en:00:00:00.000
00:08:31.594 : en:00:08:31.594
00:17:43.896 : en:00:17:43.896
00:23:41.795 : en:00:23:41.795
00:31:25.592 : en:00:31:25.592
00:39:37.083 : en:00:39:37.083
00:47:18.461 : en:00:47:18.461
00:58:01.395 : en:00:58:01.395
01:05:58.371 : en:01:05:58.371
01:14:54.156 : en:01:14:54.156
01:23:34.718 : en:01:23:34.718
01:29:48.550 : en:01:29:48.550
Скриншоты:




Показать сообщения:    

Текущее время: 19-Июн 08:23

Часовой пояс: UTC + 11


Вы не можете начинать темы
Вы не можете отвечать на сообщения
Вы не можете редактировать свои сообщения
Вы не можете удалять свои сообщения
Вы не можете голосовать в опросах
Вы не можете прикреплять файлы к сообщениям
Вы не можете скачивать файлы

Сайт не предоставляет электронные версии произведений, а занимается лишь коллекционированием и каталогизацией ссылок, присылаемых и публикуемых на форуме нашими читателями. Если вы являетесь правообладателем какого-либо представленного материала и не желаете, чтобы ссылка на него находилась в нашем каталоге, свяжитесь с нами, и мы незамедлительно удалим ее. Файлы для обмена на трекере предоставлены пользователями сайта, и администрация не несет ответственности за их содержание. Просьба не заливать файлы, защищенные авторскими правами, а также файлы нелегального содержания!