+100


Топ за 24 часа
 
 

[Цитировать]

- Большой (2016) HDTVRip (серии 1-2 из 2)-Производство: Россия | Продюсерская компания В. Тодоровского
Жанр: Драма
Режиссер: Валерий Тодоровский
Актеры: Алиса Фрейндлих, Валентина Теличкина, Александр Домогаров, Николя Ле Риш, Маргарита Симонова, Катя Самуйлина, Анна Исаева, Анастасия Плотникова, Анастасия Прокофьева, Анна Тарасенко
Описание:
Талантливая танцовщица Юля Ольшанская из маленького шахтёрского городка вытягивает «счастливый билет»: её замечает бывший артист балета Потоцкий и прочит будущее великой балерины. Однако для того, чтобы стать бриллиантом, требуется огранка. Путь на легендарные подмостки Большого театра для Юли лежит через стены балетной школы, где опеку над непокорной провинциалкой берёт своенравная Галина Белецкая. Превращение в приму потребует невероятного самоотречения и Юля на собственном опыте должна будет убедиться, что большой балет — это не только белизна пачек, золото лож и скольжение шёлковых лент.

Возраст: 12+ (зрителям, достигшим 12 лет)
Дата мировой премьеры: 28 мая 2017
Дата российской премьеры: 11 мая 2017, «WDSSPR»
Дата выхода DVD/Blu-ray релиза: 10 июля 2017, «Мистерия Звука»
Продолжительность: 2х ~01:31:00
Качество видео: HDTVRip
Видео: AVC/H.264, 1024x576 (16:9), ~2000 kbps, 25.00 fps
Аудио: AC3, 2 ch, 192 kbps CBR, 48.0 kHz

MediaInfo

General
Unique ID : 234444498529481936315427826619321734029 (0xB0605E3558484397A22C408F802CD38D)
Complete name : D:\Большой_HDTVRip_AVC\01_Большой_HDTVRip_AVC.mkv
Format : Matroska
Format version : Version 2
File size : 1.40 GiB
Duration : 1 h 31 min
Overall bit rate : 2 194 kb/s
Encoded date : UTC 2018-03-10 02:32:34
Writing application : mkvmerge v7.8.0 ('River Man') 32bit built on Apr 3 2015 12:11:22
Writing library : libebml v1.3.1 + libmatroska v1.4.2
Video
ID : 1
Format : AVC
Format/Info : Advanced Video Codec
Format profile : High@L4.1
Format settings, CABAC : Yes
Format settings, ReFrames : 9 frames
Codec ID : V_MPEG4/ISO/AVC
Duration : 1 h 31 min
Bit rate : 2 000 kb/s
Width : 1 024 pixels
Height : 576 pixels
Display aspect ratio : 16:9
Frame rate mode : Constant
Frame rate : 25.000 FPS
Color space : YUV
Chroma subsampling : 4:2:0
Bit depth : 8 bits
Scan type : Progressive
Bits/(Pixel*Frame) : 0.136
Stream size : 1.25 GiB (89%)
Writing library : x264 core 146 r2538 121396c
Encoding settings : cabac=1 / ref=9 / deblock=1:-2:-1 / analyse=0x3:0x133 / me=umh / subme=9 / psy=1 / psy_rd=1.00:0.15 / mixed_ref=1 / me_range=32 / chroma_me=1 / trellis=2 / 8x8dct=1 / cqm=0 / deadzone=21,11 / fast_pskip=0 / chroma_qp_offset=-3 / threads=18 / lookahead_threads=3 / sliced_threads=0 / nr=0 / decimate=1 / interlaced=0 / bluray_compat=0 / constrained_intra=0 / bframes=9 / b_pyramid=2 / b_adapt=2 / b_bias=0 / direct=1 / weightb=1 / open_gop=0 / weightp=2 / keyint=250 / keyint_min=25 / scenecut=40 / intra_refresh=0 / rc=2pass / mbtree=0 / bitrate=2000 / ratetol=1.0 / qcomp=0.60 / qpmin=0 / qpmax=69 / qpstep=4 / cplxblur=20.0 / qblur=0.5 / ip_ratio=1.40 / pb_ratio=1.30 / aq=2:1.00
Default : Yes
Forced : No
Color range : Limited
Color primaries : BT.709
Transfer characteristics : BT.709
Matrix coefficients : BT.709
Audio
ID : 2
Format : AC-3
Format/Info : Audio Coding 3
Format settings, Endianness : Big
Codec ID : A_AC3
Duration : 1 h 31 min
Bit rate mode : Constant
Bit rate : 192 kb/s
Channel(s) : 2 channels
Channel positions : Front: L R
Sampling rate : 48.0 kHz
Frame rate : 31.250 FPS (1536 spf)
Bit depth : 16 bits
Compression mode : Lossy
Stream size : 126 MiB (9%)
Service kind : Complete Main
Default : Yes
Forced : No

Дополнительная информация:

Полная версия фильма Валерия Тодоровского "Большой".
Большой театр не впервые становится съемочной площадкой. Но впервые на исторической сцене этого легендарного театра был снят фильм, о котором даже профессиональные танцовщики говорят: "Так все здесь и происходит, это настоящий балет". В мировом кинематографе можно вспомнить считаные картины на сюжеты, связанные с балетом. В отечественном кино их почти не было, в постсоветской России не снято ни одной. Новый фильм Валерия Тодоровского "Большой" фактически открывает мир балета для киноэкрана. История восхождения юной провинциалки Юли Ольшанской на балетный олимп начинается в провинциальном шахтерском городке: ее, танцующую на улице, замечает бывший артист балета Потоцкий. Когда-то он и сам подавал большие надежды, а теперь не может пройти мимо уникального дарования и прочит девочке будущее великой балерины, достойной главной сцены страны.
Премия "Золотой Орел" в номинации "Лучший сценарий" 2018
Скриншоты:




Показать сообщения:    

Текущее время: 24-Июн 04:50

Часовой пояс: UTC + 11


Вы не можете начинать темы
Вы не можете отвечать на сообщения
Вы не можете редактировать свои сообщения
Вы не можете удалять свои сообщения
Вы не можете голосовать в опросах
Вы не можете прикреплять файлы к сообщениям
Вы не можете скачивать файлы

Сайт не предоставляет электронные версии произведений, а занимается лишь коллекционированием и каталогизацией ссылок, присылаемых и публикуемых на форуме нашими читателями. Если вы являетесь правообладателем какого-либо представленного материала и не желаете, чтобы ссылка на него находилась в нашем каталоге, свяжитесь с нами, и мы незамедлительно удалим ее. Файлы для обмена на трекере предоставлены пользователями сайта, и администрация не несет ответственности за их содержание. Просьба не заливать файлы, защищенные авторскими правами, а также файлы нелегального содержания!