+100


Топ за 24 часа
 
 

[Цитировать]

-Девичник (2017) WEB-DLRip-Производство: Россия / ООО Киностудия "Вертикаль"
Жанр: комедия, мелодрама
Режиссер: Виталий Павлов
Актеры: Эльвира Болгова, Аглая Шиловская, Ирина Розанова, Владимир Зайцев, Олег Флеер, Сергей Глушко и др.
Описание:
Татьяна обнаруживает, что мужчина, с которым она жила, бесследно исчез, но оставил в подарок очень дорогой бриллиантовый браслет. Женщина растеряна, она не понимает, почему ее любимый человек так поступил с ней, и что является причиной исчезновения – проблемы на работе, или это просто конец их романа. В таком разбитом состоянии ее застает дочь Лиза, которая тоже потерпела фиаско в любви, а также мать Лариса, по странному стечению обстоятельств решившая остаться одна и уйти от мужчины, с которым жила последние десять лет. Перипетии, встречающиеся на пути у трех женщин, решивших спрятать этот загадочный браслет, приводят их к заветной цели. Сможет ли каждая найти своего единственного и неповторимого спутника жизни? Стоит ли искать любовь, если она была совсем рядом? На что способны три женщины в поисках счастья?
Дата премьеры в России: 8 марта 2018
Продолжительность: ~00:48:00 серия
Качество видео: WEB-DLRip
Видео: XviD, 720x400 (16:9), ~1548 Kbps
Аудио: AC-3, 48.0 KHz, 2 ch, 192 Kbps

MediaInfo

Общее
Полное имя : E:\NNM\Девичник\Devichnik 2017 WEB-DLRip\04.Devichnik.avi
Формат : AVI
Формат/Информация : Audio Video Interleave
Размер файла : 600 Мбайт
Продолжительность : 47 м. 42 с.
Общий поток : 1759 Кбит/сек
Программа кодирования : VirtualDubMod 1.5.10.3 | (build 2550/release)
Библиотека кодирования : VirtualDubMod build 2550/release
Видео
Идентификатор : 0
Формат : MPEG-4 Visual
Профиль формата : Advanced Simple@L5
Настройки формата : BVOP1 / Custom Matrix
Параметр BVOP формата : 1
Параметр QPel формата : Нет
Параметр GMC формата : Без точки перехода
Параметр матрицы формата : Выборочная
Идентификатор кодека : XVID
Идентификатор кодека/Подсказка : XviD
Продолжительность : 47 м. 42 с.
Битрейт : 1557 Кбит/сек
Ширина : 720 пикселей
Высота : 400 пикселей
Соотношение сторон : 16:9
Частота кадров : 25,000 кадров/сек
Цветовое пространство : YUV
Субдискретизация насыщенности : 4:2:0
Битовая глубина : 8 бит
Тип развёртки : Прогрессивная
Метод сжатия : С потерями
Бит/(Пиксели*Кадры) : 0.216
Размер потока : 531 Мбайт (89%)
Библиотека кодирования : XviD 73
Аудио
Идентификатор : 1
Формат : AC-3
Формат/Информация : Audio Coding 3
Идентификатор кодека : 2000
Продолжительность : 47 м. 42 с.
Вид битрейта : Постоянный
Битрейт : 192 Кбит/сек
Каналы : 2 канала
Расположение каналов : Front: L R
Частота : 48,0 КГц
Частота кадров : 31,250 кадров/сек (1536 SPF)
Битовая глубина : 16 бит
Метод сжатия : С потерями
Размер потока : 65,5 Мбайт (11%)
Выравнивание : Разделение по промежуткам
Продолжительность промежутка : 40 мс. (1,00 видеокадр)
Время предзагрузки промежутка : 500 мс.
ServiceKind/String : Complete Main
Скриншоты:




Показать сообщения:    

Текущее время: 23-Июн 13:37

Часовой пояс: UTC + 11


Вы не можете начинать темы
Вы не можете отвечать на сообщения
Вы не можете редактировать свои сообщения
Вы не можете удалять свои сообщения
Вы не можете голосовать в опросах
Вы не можете прикреплять файлы к сообщениям
Вы не можете скачивать файлы

Сайт не предоставляет электронные версии произведений, а занимается лишь коллекционированием и каталогизацией ссылок, присылаемых и публикуемых на форуме нашими читателями. Если вы являетесь правообладателем какого-либо представленного материала и не желаете, чтобы ссылка на него находилась в нашем каталоге, свяжитесь с нами, и мы незамедлительно удалим ее. Файлы для обмена на трекере предоставлены пользователями сайта, и администрация не несет ответственности за их содержание. Просьба не заливать файлы, защищенные авторскими правами, а также файлы нелегального содержания!