+100


 

[Цитировать]

-Лига справедливости / Justice League (2017) UHD BDRemux [H.265/2160p] [4K, HDR, 10-bit] [IMAX Edition]«Нельзя спасти мир в одиночку»-Производство: США, Великобритания, Канада / Warner Bros. Pictures
Жанр: фантастика, фэнтези, боевик, приключения
Режиссер: Зак Снайдер
Продюсер: Бен Аффлек, Мэдисон Эйнли, Джон Берг
Актеры: Галь Гадот, Робин Райт, Джейсон Момоа, Конни Нильсен, Эми Адамс, Бен Аффлек, Эзра Миллер, Эмбер Хёрд, Генри Кавилл, Дайан Лэйн
Описание:
Брюс Уэйн, вдохновленный самопожертвованием Супермена, вновь обретает веру в человечество. Он заручается поддержкой новой союзницы, Дианы Принс, чтобы сразиться с еще более могущественным противником. Бэтмен и Чудо-Женщина быстро набирают команду сверхлюдей для борьбы с пробудившейся угрозой. Но несмотря на уникальный состав отряда супергероев — Бэтмен, Чудо-Женщина, Аквамэн, Киборг и Флэш, — быть может, спасать планету от вторжения катастрофических масштабов уже слишком поздно.

Возраст: 16+ (зрителям, достигшим 16 лет)
Рейтинг MPAA: PG-13 (детям до 13 лет просмотр нежелателен)
Дата мировой премьеры: 13 ноября 2017
Премьера (РФ): 16 ноября 2017, «Каро-Премьер» 3D

Релиз от: ExKinoRay
Продолжительность: 02:00:02
Качество: UHD BDRemux (HDR)
Перевод: Дублированный (Лицензия BD EUR)
Субтитры: Русские (forced, full), украинские (forced), английские
Видео: H.265/HEVC, 3840x2160, (16:9), 51.6 Mbps, 23.976 fps
Аудио: AC3, 6 ch, 448 kbps - Русский
Аудио: AC3, 2 ch, 224 kbps - Украинский
Аудио: TrueHD-Atmos, 8 ch, 3879 kbps - Английский
Аудио: AC3, 6 ch, 448 kbps - Английский, AC3 CORE

MediaInfo

Общее
Уникальный идентификатор : 310162412987576004255022686733429190261 (0xE9571B9DFFA44403D095EDB1AE452E75)
Полное имя : Justice.League.2017.2160p.BluRay.REMUX.HEVC.HDR.IVA(RUS.UKR.ENG).ExKinoRay.mkv
Формат : Matroska
Версия формата : Version 4 / Version 2
Размер файла : 47,6 Гбайт
Продолжительность : 2 ч. 0 м.
Режим общего битрейта : Переменный
Общий поток : 56,7 Мбит/сек
Название фильма : Justice.League.2017.2160p.BluRay.REMUX.HEVC.HDR.IVA(RUS.UKR.ENG).ExKinoRay
Дата кодирования : UTC 2018-03-07 02:22:57
Программа кодирования : mkvmerge v21.0.0 ('Tardigrades Will Inherit The Earth') 64-bit
Библиотека кодирования : libebml v1.3.5 + libmatroska v1.4.8
Обложка : Yes
Видео
Идентификатор : 1
Формат : HEVC
Формат/Информация : High Efficiency Video Coding
Профиль формата : Main 10@L5.1@High
Идентификатор кодека : V_MPEGH/ISO/HEVC
Продолжительность : 2 ч. 0 м.
Битрейт : 51,6 Мбит/сек
Ширина : 3840 пикселей
Высота : 2160 пикселей
Соотношение сторон : 16:9
Режим частоты кадров : Постоянный
Частота кадров : 23,976 (24000/1001) кадра/сек
Цветовое пространство : YUV
Субдискретизация насыщенности : 4:2:0 (Type 2)
Битовая глубина : 10 бит
Бит/(Пиксели*Кадры) : 0.260
Размер потока : 43,3 Гбайт (91%)
Заголовок : MPEG-H HEVC Video / 51650 kbps / 2160p / HDR / BT.2020
Язык : English
Default : Да
Forced : Нет
Цветовой диапазон : Limited
Основные цвета : BT.2020
Характеристики трансфера : PQ
Коэффициенты матрицы : BT.2020 non-constant
MasteringDisplay_ColorPrimaries : Display P3
MasteringDisplay_Luminance : min: 0.0050 cd/m2, max: 4000 cd/m2
MaxCLL : 1016 cd/m2
MaxFALL : 342 cd/m2
Аудио #1
Идентификатор : 2
Формат : AC-3
Формат/Информация : Audio Coding 3
Идентификатор кодека : A_AC3
Продолжительность : 2 ч. 0 м.
Вид битрейта : Постоянный
Битрейт : 448 Кбит/сек
Каналы : 6 каналов
Расположение каналов : Front: L C R, Side: L R, LFE
Частота : 48,0 КГц
Частота кадров : 31,250 кадров/сек (1536 SPF)
Битовая глубина : 16 бит
Метод сжатия : С потерями
Размер потока : 385 Мбайт (1%)
Заголовок : | Дублированный |
Язык : Russian
ServiceKind/String : Complete Main
Default : Да
Forced : Нет
Аудио #2
Идентификатор : 3
Формат : AC-3
Формат/Информация : Audio Coding 3
Идентификатор кодека : A_AC3
Продолжительность : 2 ч. 0 м.
Вид битрейта : Постоянный
Битрейт : 224 Кбит/сек
Каналы : 2 канала
Расположение каналов : Front: L R
Частота : 48,0 КГц
Частота кадров : 31,250 кадров/сек (1536 SPF)
Битовая глубина : 16 бит
Метод сжатия : С потерями
Размер потока : 192 Мбайт (0%)
Заголовок : | Дублированный, UKR |
Язык : Ukrainian
ServiceKind/String : Complete Main
Default : Нет
Forced : Нет
Аудио #3
Идентификатор : 4
Формат : TrueHD
Профиль формата : TrueHD+Atmos / TrueHD
Идентификатор кодека : A_TRUEHD
Продолжительность : 2 ч. 0 м.
Вид битрейта : Переменный
Битрейт : 3879 Кбит/сек
Максимальный битрейт : 6366 Кбит/сек
Каналы : Object Based / 8 каналов
Расположение каналов : Object Based / Front: L C R, Side: L R, Back: L R, LFE
Частота : / 48,0 КГц
Частота кадров : 1200,000 кадров/сек (40 SPF)
Метод сжатия : Без потерь
Размер потока : 3,25 Гбайт (7%)
Заголовок : | Original |
Язык : English
Default : Нет
Forced : Нет
Аудио #4
Идентификатор : 5
Формат : AC-3
Формат/Информация : Audio Coding 3
Идентификатор кодека : A_AC3
Продолжительность : 2 ч. 0 м.
Вид битрейта : Постоянный
Битрейт : 448 Кбит/сек
Каналы : 6 каналов
Расположение каналов : Front: L C R, Side: L R, LFE
Частота : 48,0 КГц
Частота кадров : 31,250 кадров/сек (1536 SPF)
Битовая глубина : 16 бит
Метод сжатия : С потерями
Размер потока : 385 Мбайт (1%)
Заголовок : | Original, AC3 CORE |
Язык : English
ServiceKind/String : Complete Main
Default : Нет
Forced : Нет
Текст #1
Идентификатор : 6
Формат : UTF-8
Идентификатор кодека : S_TEXT/UTF8
Идентификатор кодека/Информация : UTF-8 Plain Text
Продолжительность : 1 ч. 57 м.
Битрейт : 0 бит/сек
ElementCount : 24
Размер потока : 818 байт (0%)
Заголовок : Forced
Язык : Russian
Default : Да
Forced : Да
Текст #2
Идентификатор : 7
Формат : UTF-8
Идентификатор кодека : S_TEXT/UTF8
Идентификатор кодека/Информация : UTF-8 Plain Text
Продолжительность : 1 ч. 58 м.
Битрейт : 69 бит/сек
ElementCount : 1024
Размер потока : 60,3 Кбайт (0%)
Заголовок : Full
Язык : Russian
Default : Нет
Forced : Нет
Текст #3
Идентификатор : 8
Формат : UTF-8
Идентификатор кодека : S_TEXT/UTF8
Идентификатор кодека/Информация : UTF-8 Plain Text
Продолжительность : 1 ч. 38 м.
Битрейт : 1 бит/сек
ElementCount : 31
Размер потока : 1,21 Кбайт (0%)
Заголовок : Forced
Язык : Ukrainian
Default : Нет
Forced : Да
Текст #4
Идентификатор : 9
Формат : UTF-8
Идентификатор кодека : S_TEXT/UTF8
Идентификатор кодека/Информация : UTF-8 Plain Text
Продолжительность : 1 ч. 49 м.
Битрейт : 43 бит/сек
ElementCount : 1279
Размер потока : 35,3 Кбайт (0%)
Заголовок : Full
Язык : English
Default : Нет
Forced : Нет
Меню
00:00:00.000 : en:Chapter 1
00:10:56.155 : en:Chapter 2
00:19:16.489 : en:Chapter 3
00:30:41.673 : en:Chapter 4
00:40:19.667 : en:Chapter 5
00:49:56.535 : en:Chapter 6
01:01:26.892 : en:Chapter 7
01:09:41.552 : en:Chapter 8
01:19:18.587 : en:Chapter 9
01:30:34.512 : en:Chapter 10
01:40:33.569 : en:Chapter 11
01:48:43.058 : en:Chapter 12
Скриншоты:




Показать сообщения:    

Текущее время: 19-Июн 08:26

Часовой пояс: UTC + 11


Вы не можете начинать темы
Вы не можете отвечать на сообщения
Вы не можете редактировать свои сообщения
Вы не можете удалять свои сообщения
Вы не можете голосовать в опросах
Вы не можете прикреплять файлы к сообщениям
Вы не можете скачивать файлы

Сайт не предоставляет электронные версии произведений, а занимается лишь коллекционированием и каталогизацией ссылок, присылаемых и публикуемых на форуме нашими читателями. Если вы являетесь правообладателем какого-либо представленного материала и не желаете, чтобы ссылка на него находилась в нашем каталоге, свяжитесь с нами, и мы незамедлительно удалим ее. Файлы для обмена на трекере предоставлены пользователями сайта, и администрация не несет ответственности за их содержание. Просьба не заливать файлы, защищенные авторскими правами, а также файлы нелегального содержания!