+100


Топ за 24 часа
 
 

[Цитировать]

- Московская пленница (2017) WEB-DL [H.264/1080p-LQ]-Производство: Россия / Марс Медиа Энтертейнмент
Жанр: Мелодрама
Режиссер: Наталья Хлопецкая
Актеры: Екатерина Соломатина, Евгения Розанова, Николай Быстров, Антон Батырев, Ирина Баринова, Сергей Галахов, Ирина Гришина, Алексей Колубков, Зураб Миминошвили и др.
Описание:
Лена и Сережа Саврасовы на пороге новой жизни — через несколько часов они получат ключи от квартиры в новом доме. В эту квартиру вложены все их сбережения. Чтобы выплатить финальный взнос по ипотеке, молодые два года отказывали себе во всем, ютились в комнате в коммуналке, питались лапшой из пачек. И вот, когда до мечты остается один шаг, жизнь бросает Саврасовым такой вызов, который они вряд ли смогут принять…

Возраст: 12+ (зрителям, достигшим 12 лет)
Релиз от: Алехаndr
Продолжительность: ~00:45:00 серия
Качество видео: WEB-DL
Субтитры: Отсутствуют
Видео: AVC/H.264, 1920x1080 (16:9), ~2900 Kbps
Аудио: AC3, 2 ch, 192 Kbps

MediaInfo

Общее
Уникальный идентификатор : 185842339149030740875667464769238368340 (0x8BCFEEBE3B5EC39FC4572DA325D68054)
Полное имя : G:\Московская пленница (2017).by.Алехаndr\Серия 1.by.Алехаndr.mkv
Формат : Matroska
Версия формата : Version 4 / Version 2
Размер файла : 1,00 Гбайт
Продолжительность : 46 м. 21 с.
Общий поток : 3095 Кбит/сек
Дата кодирования : UTC 2018-03-09 09:34:52
Программа кодирования : mkvmerge v21.0.0 ('Tardigrades Will Inherit The Earth') 64-bit
Библиотека кодирования : libebml v1.3.5 + libmatroska v1.4.8 / Lavf57.71.100
Видео
Идентификатор : 1
Формат : AVC
Формат/Информация : Advanced Video Codec
Профиль формата : High@L4
Настройки формата : CABAC / 2 Ref Frames
Параметр CABAC формата : Да
Параметр RefFrames формата : 2 кадра
Идентификатор кодека : V_MPEG4/ISO/AVC
Продолжительность : 46 м. 21 с.
Битрейт : 2901 Кбит/сек
Ширина : 1920 пикселей
Высота : 1080 пикселей
Соотношение сторон : 16:9
Режим частоты кадров : Постоянный
Частота кадров : 25,000 кадров/сек
Цветовое пространство : YUV
Субдискретизация насыщенности : 4:2:0
Битовая глубина : 8 бит
Тип развёртки : Прогрессивная
Бит/(Пиксели*Кадры) : 0.056
Размер потока : 962 Мбайт (94%)
Default : Да
Forced : Нет
Цветовой диапазон : Limited
Основные цвета : BT.709
Характеристики трансфера : BT.709
Коэффициенты матрицы : BT.709
Аудио
Идентификатор : 2
Формат : AC-3
Формат/Информация : Audio Coding 3
Идентификатор кодека : A_AC3
Продолжительность : 46 м. 21 с.
Вид битрейта : Постоянный
Битрейт : 192 Кбит/сек
Каналы : 2 канала
Расположение каналов : Front: L R
Частота : 44,1 КГц
Частота кадров : 28,711 кадров/сек (1536 SPF)
Битовая глубина : 16 бит
Метод сжатия : С потерями
Размер потока : 63,7 Мбайт (6%)
Язык : Russian
ServiceKind/String : Complete Main
Default : Да
Forced : Нет
Скриншоты:




Показать сообщения:    

Текущее время: 23-Июн 13:27

Часовой пояс: UTC + 11


Вы не можете начинать темы
Вы не можете отвечать на сообщения
Вы не можете редактировать свои сообщения
Вы не можете удалять свои сообщения
Вы не можете голосовать в опросах
Вы не можете прикреплять файлы к сообщениям
Вы не можете скачивать файлы

Сайт не предоставляет электронные версии произведений, а занимается лишь коллекционированием и каталогизацией ссылок, присылаемых и публикуемых на форуме нашими читателями. Если вы являетесь правообладателем какого-либо представленного материала и не желаете, чтобы ссылка на него находилась в нашем каталоге, свяжитесь с нами, и мы незамедлительно удалим ее. Файлы для обмена на трекере предоставлены пользователями сайта, и администрация не несет ответственности за их содержание. Просьба не заливать файлы, защищенные авторскими правами, а также файлы нелегального содержания!