+100


Топ за 24 часа
 
 

[Цитировать]

- Джуманджи: Зов джунглей / Jumanji: Welcome to the Jungle (2017) BDRip [H.264/720p]-Производство: США, Matt Tolmach Productions
Жанр: Фэнтези, Боевик, Комедия, Приключения
Режиссер: Джейк Кэздан
Продюсер: Тед Филд, Дэни Гарсиа, Хирам Гарсиа
Актеры: Дуэйн Джонсон, Кевин Харт, Джек Блэк, Карен Гиллан, Риз Дэрби, Бобби Каннавейл, Ник Джонас, Алекс Вулф, Сер’Дариус Блэйн, Мэдисон Исман
Описание:
Четверо подростков оказываются внутри игры «Джуманджи». Их ждет схватка с носорогами, черными мамбами, а на каждом шагу будет подстерегать бесконечная череда ловушек и головоломок. Чтобы пройти игру и остаться в живых, им придется перевоплотиться в персонажей игры: робкий и застенчивый Спенсер превращается в отважного и сильного исследователя, здоровяк Фридж — в коротышку, модница и красавица Беттани — в профессора, а неуклюжая и нескладная Марта становится бесстрашной и ловкой амазонкой. Друзьям придется привыкнуть к совершенно новым и таким непривычным для себя ролям и найти дорогу домой.

Возраст: 16+ (зрителям, достигшим 16 лет)
Рейтинг MPAA: PG-13 (детям до 13 лет просмотр нежелателен)
Дата мировой премьеры: 5 декабря 2017
Дата российской премьеры: 21 декабря 2017, «WDSSPR»
Продолжительность: 01:59:03
Качество видео: BDRip
Перевод: Дублированный (iTunes)
Субтитры: Русские (forced, full), украинские (full), английские
Видео: AVC/H.264, 1280x534, ~5865 Kbps
Аудио 1: AC3, 6 ch, 384 Kbps - Русский
Аудио 2: AC3, 2 ch, 224 Kbps - Украинский
Аудио 3: DTS, 6 ch, 1509 Kbps - Английский

BDInfo

Jumanji.Welcome.to.the.Jungle.2017.BDRip.720p.mkv
Формат : Matroska
Версия формата : Version 4 / Version 2
Размер файла : 6,64 Гбайт
Продолжительность : 1 ч. 59 м.
Общий поток : 7985 Кбит/сек
Название фильма : Jumanji Welcome to the Jungle 2017 from ExKinoRay
Дата кодирования : UTC 2018-03-07 19:45:42
Программа кодирования : mkvmerge v21.0.0 ('Tardigrades Will Inherit The Earth') 64-bit
Библиотека кодирования : libebml v1.3.5 + libmatroska v1.4.8
Видео
Идентификатор : 1
Формат : AVC
Формат/Информация : Advanced Video Codec
Профиль формата : High@L4.1
Настройки формата : CABAC / 12 Ref Frames
Параметр CABAC формата : Да
Параметр RefFrames формата : 12 кадров
Идентификатор кодека : V_MPEG4/ISO/AVC
Продолжительность : 1 ч. 59 м.
Битрейт : 5865 Кбит/сек
Ширина : 1280 пикселей
Высота : 534 пикселя
Соотношение сторон : 2,40:1
Режим частоты кадров : Постоянный
Частота кадров : 23,976 (24000/1001) кадра/сек
Цветовое пространство : YUV
Субдискретизация насыщенности : 4:2:0
Битовая глубина : 8 бит
Тип развёртки : Прогрессивная
Бит/(Пиксели*Кадры) : 0.358
Размер потока : 4,88 Гбайт (73%)
Библиотека кодирования : x264 core 152 r2851kMod ba24899
Настройки программы : cabac=1 / ref=12 / deblock=1:-3:-3 / analyse=0x3:0x133 / me=umh / subme=10 / psy=1 / fade_compensate=0.00 / psy_rd=1.00:0.00 / mixed_ref=1 / me_range=32 / chroma_me=1 / trellis=2 / 8x8dct=1 / cqm=0 / deadzone=21,11 / fast_pskip=0 / chroma_qp_offset=-2 / threads=17 / lookahead_threads=2 / sliced_threads=0 / nr=0 / decimate=1 / interlaced=0 / bluray_compat=0 / constrained_intra=0 / bframes=8 / b_pyramid=2 / b_adapt=2 / b_bias=0 / direct=1 / weightb=1 / open_gop=0 / weightp=2 / keyint=240 / keyint_min=23 / scenecut=40 / intra_refresh=0 / rc_lookahead=60 / rc=crf / mbtree=0 / crf=14.9000 / qcomp=0.60 / qpmin=0 / qpmax=69 / qpstep=4 / vbv_maxrate=50000 / vbv_bufsize=62500 / crf_max=0.0 / nal_hrd=none / filler=0 / ip_ratio=1.35 / pb_ratio=1.25 / aq=3:0.80
Язык : English
Default : Да
Forced : Нет
Аудио #1
Идентификатор : 2
Формат : AC-3
Формат/Информация : Audio Coding 3
Идентификатор кодека : A_AC3
Продолжительность : 1 ч. 59 м.
Вид битрейта : Постоянный
Битрейт : 384 Кбит/сек
Каналы : 6 каналов
Расположение каналов : Front: L C R, Side: L R, LFE
Частота : 48,0 КГц
Частота кадров : 31,250 кадров/сек (1536 SPF)
Битовая глубина : 16 бит
Метод сжатия : С потерями
Размер потока : 327 Мбайт (5%)
Заголовок : iTunes
Язык : Russian
ServiceKind/String : Complete Main
Default : Да
Forced : Да
Аудио #2
Идентификатор : 3
Формат : AC-3
Формат/Информация : Audio Coding 3
Идентификатор кодека : A_AC3
Продолжительность : 1 ч. 59 м.
Вид битрейта : Постоянный
Битрейт : 224 Кбит/сек
Каналы : 2 канала
Расположение каналов : Front: L R
Частота : 48,0 КГц
Частота кадров : 31,250 кадров/сек (1536 SPF)
Битовая глубина : 16 бит
Метод сжатия : С потерями
Размер потока : 191 Мбайт (3%)
Заголовок : iTunes
Язык : Ukrainian
ServiceKind/String : Complete Main
Default : Нет
Forced : Нет
Аудио #3
Идентификатор : 4
Формат : DTS
Формат/Информация : Digital Theater Systems
Идентификатор кодека : A_DTS
Продолжительность : 1 ч. 59 м.
Вид битрейта : Постоянный
Битрейт : 1509 Кбит/сек
Каналы : 6 каналов
Расположение каналов : Front: L C R, Side: L R, LFE
Частота : 48,0 КГц
Частота кадров : 93,750 кадра/сек (512 SPF)
Битовая глубина : 24 бит
Метод сжатия : С потерями
Размер потока : 1,25 Гбайт (19%)
Заголовок : Original
Язык : English
Default : Нет
Forced : Нет
Текст #1
Идентификатор : 5
Формат : UTF-8
Идентификатор кодека : S_TEXT/UTF8
Идентификатор кодека/Информация : UTF-8 Plain Text
Продолжительность : 1 ч. 55 м.
Битрейт : 0 бит/сек
ElementCount : 2
Размер потока : 110 байт (0%)
Заголовок : forced
Язык : Russian
Default : Да
Forced : Да
Текст #2
Идентификатор : 6
Формат : UTF-8
Идентификатор кодека : S_TEXT/UTF8
Идентификатор кодека/Информация : UTF-8 Plain Text
Продолжительность : 1 ч. 57 м.
Битрейт : 95 бит/сек
ElementCount : 1577
Размер потока : 82,2 Кбайт (0%)
Заголовок : full
Язык : Russian
Default : Нет
Forced : Нет
Текст #3
Идентификатор : 7
Формат : UTF-8
Идентификатор кодека : S_TEXT/UTF8
Идентификатор кодека/Информация : UTF-8 Plain Text
Продолжительность : 1 ч. 57 м.
Битрейт : 76 бит/сек
ElementCount : 1562
Размер потока : 66,4 Кбайт (0%)
Заголовок : iTunes
Язык : Ukrainian
Default : Нет
Forced : Нет
Текст #4
Идентификатор : 8
Формат : UTF-8
Идентификатор кодека : S_TEXT/UTF8
Идентификатор кодека/Информация : UTF-8 Plain Text
Продолжительность : 1 ч. 48 м.
Битрейт : 63 бит/сек
ElementCount : 1539
Размер потока : 50,9 Кбайт (0%)
Заголовок : full
Язык : English
Default : Нет
Forced : Нет
Меню
00:00:00.000 : en:00:00:00.000
00:07:18.104 : en:00:07:18.104
00:17:15.993 : en:00:17:15.993
00:23:23.235 : en:00:23:23.235
00:29:24.972 : en:00:29:24.972
00:42:28.546 : en:00:42:28.546
00:47:11.162 : en:00:47:11.162
00:54:26.722 : en:00:54:26.722
01:03:20.839 : en:01:03:20.839
01:10:21.801 : en:01:10:21.801
01:15:51.672 : en:01:15:51.672
01:24:10.087 : en:01:24:10.087
01:28:20.295 : en:01:28:20.295
01:33:48.414 : en:01:33:48.414
01:42:22.887 : en:01:42:22.887
01:48:31.839 : en:01:48:31.839
Скриншоты:




Показать сообщения:    

Текущее время: 23-Июн 13:27

Часовой пояс: UTC + 11


Вы не можете начинать темы
Вы не можете отвечать на сообщения
Вы не можете редактировать свои сообщения
Вы не можете удалять свои сообщения
Вы не можете голосовать в опросах
Вы не можете прикреплять файлы к сообщениям
Вы не можете скачивать файлы

Сайт не предоставляет электронные версии произведений, а занимается лишь коллекционированием и каталогизацией ссылок, присылаемых и публикуемых на форуме нашими читателями. Если вы являетесь правообладателем какого-либо представленного материала и не желаете, чтобы ссылка на него находилась в нашем каталоге, свяжитесь с нами, и мы незамедлительно удалим ее. Файлы для обмена на трекере предоставлены пользователями сайта, и администрация не несет ответственности за их содержание. Просьба не заливать файлы, защищенные авторскими правами, а также файлы нелегального содержания!