+100


Топ за 24 часа
 
 

[Цитировать]

- Побег из Рио / Going to Brazil (2016) BDRip [H.264/1080p]-Производство: Франция / Canal+ (fr), Chapter 2, Proximus
Жанр: Комедия, приключения
Режиссер: Патрик Милле
Актеры: Ванесса Гуид, Элисон Вилер, Марго Бансийон, Филиппина Стиндель, Патрик Милле, Чико Диаз, Жозеф Малерба, Кристин Ситти, Сюзана Пирес, Ингра Либерату
Описание:
Три девушки прилетели на роскошную свадьбу к подруге детства в один из самых завораживающих и опасных мегаполисов мира — в Рио-де-Жанейро — город самых безбашенных вечеринок, ярких карнавалов и пугающих трущоб. За тысячи километров от дома они мечтают всласть оторваться, а быть может — и встретить любовь! Нацелившись на весёлые и беззаботные каникулы, они даже не догадываются, каким диким, отвязным и рискованным приключением обернётся эта поездка. Девочки хотят отжечь. А придётся ещё и выжить!

Возраст: 18+ (зрителям, достигшим 18 лет. запрещено для детей)
Дата мировой премьеры: 24 августа 2016
Дата российской премьеры: 25 января 2018, «МВК»
Продолжительность: 01:35:13
Качество видео: BDRip
Перевод: Дублированный (iTunes)
Субтитры: Французские (форс)
Видео: AVC/H.264, 1920x800, 8236 Кbps, 24.00 fps
Аудио 1: AC3, 6 ch, 384 Kbps - Русский
Аудио 2: DTS, 6 ch, 1509 Kbps - Французский

MediaInfo

Общее
Уникальный идентификатор : 229422190730459729085494373086285163108 (0xAC991B50EB2F39F89E49EB36275E6A64)
Полное имя : Going To Brazil.2016.BDRip.1080p.mkv
Формат : Matroska
Версия формата : Version 4 / Version 2
Размер файла : 6,61 Гбайт
Продолжительность : 1 ч. 35 м.
Общий поток : 9936 Кбит/сек
Название фильма : Going To Brazil.2016.BDRip.1080p
Дата кодирования : UTC 2018-03-09 09:03:38
Программа кодирования : mkvmerge v17.0.0 ('Be Ur Friend') 64-bit
Библиотека кодирования : libebml v1.3.5 + libmatroska v1.4.8
Видео
Идентификатор : 1
Формат : AVC
Формат/Информация : Advanced Video Codec
Профиль формата : High@L4.1
Настройки формата : CABAC / 5 Ref Frames
Параметр CABAC формата : Да
Параметр RefFrames формата : 5 кадров
Идентификатор кодека : V_MPEG4/ISO/AVC
Продолжительность : 1 ч. 35 м.
Битрейт : 8236 Кбит/сек
Ширина : 1920 пикселей
Высота : 800 пикселей
Соотношение сторон : 2,40:1
Режим частоты кадров : Постоянный
Частота кадров : 24,000 кадра/сек
Цветовое пространство : YUV
Субдискретизация насыщенности : 4:2:0
Битовая глубина : 8 бит
Тип развёртки : Прогрессивная
Бит/(Пиксели*Кадры) : 0.223
Размер потока : 5,35 Гбайт (81%)
Библиотека кодирования : x264 core 152 r2851 ba24899
Настройки программы : cabac=1 / ref=5 / deblock=1:-3:-3 / analyse=0x3:0x113 / me=umh / subme=11 / psy=1 / psy_rd=0.90:0.02 / mixed_ref=1 / me_range=128 / chroma_me=1 / trellis=2 / 8x8dct=1 / cqm=0 / deadzone=21,11 / fast_pskip=0 / chroma_qp_offset=-3 / threads=6 / lookahead_threads=1 / sliced_threads=0 / nr=0 / decimate=1 / interlaced=0 / bluray_compat=0 / constrained_intra=0 / bframes=6 / b_pyramid=2 / b_adapt=2 / b_bias=0 / direct=1 / weightb=1 / open_gop=1 / weightp=2 / keyint=250 / keyint_min=23 / scenecut=40 / intra_refresh=0 / rc_lookahead=250 / rc=abr / mbtree=1 / bitrate=8236 / ratetol=1.0 / qcomp=0.60 / qpmin=0 / qpmax=69 / qpstep=4 / vbv_maxrate=50000 / vbv_bufsize=50000 / nal_hrd=none / filler=0 / ip_ratio=1.40 / aq=1:1.00
Язык : French
Default : Да
Forced : Нет
Аудио #1
Идентификатор : 2
Формат : AC-3
Формат/Информация : Audio Coding 3
Идентификатор кодека : A_AC3
Продолжительность : 1 ч. 35 м.
Вид битрейта : Постоянный
Битрейт : 384 Кбит/сек
Каналы : 6 каналов
Расположение каналов : Front: L C R, Side: L R, LFE
Частота : 48,0 КГц
Частота кадров : 31,250 кадров/сек (1536 SPF)
Битовая глубина : 16 бит
Метод сжатия : С потерями
Размер потока : 262 Мбайт (4%)
Заголовок : DUB | iTunes
Язык : Russian
ServiceKind/String : Complete Main
Default : Да
Forced : Нет
Аудио #2
Идентификатор : 3
Формат : DTS
Формат/Информация : Digital Theater Systems
Идентификатор кодека : A_DTS
Продолжительность : 1 ч. 35 м.
Вид битрейта : Постоянный
Битрейт : 1509 Кбит/сек
Каналы : 6 каналов
Расположение каналов : Front: L C R, Side: L R, LFE
Частота : 48,0 КГц
Частота кадров : 93,750 кадра/сек (512 SPF)
Битовая глубина : 16 бит
Метод сжатия : С потерями
Размер потока : 1,00 Гбайт (15%)
Язык : French
Default : Нет
Forced : Нет
Текст
Идентификатор : 4
Формат : UTF-8
Идентификатор кодека : S_TEXT/UTF8
Идентификатор кодека/Информация : UTF-8 Plain Text
Продолжительность : 1 ч. 19 м.
Битрейт : 16 бит/сек
ElementCount : 330
Размер потока : 9,73 Кбайт (0%)
Заголовок : Forced
Язык : French
Default : Нет
Forced : Нет
Меню
00:00:00.000 : fr:Chapter 1
00:12:19.415 : fr:Chapter 2
00:25:34.500 : fr:Chapter 3
00:36:30.833 : fr:Chapter 4
00:49:00.250 : fr:Chapter 5
00:59:49.125 : fr:Chapter 6
01:11:32.541 : fr:Chapter 7
01:23:31.541 : fr:Chapter 8
01:35:10.957 : fr:Chapter 9
Скриншоты:




Показать сообщения:    

Текущее время: 23-Июн 13:36

Часовой пояс: UTC + 11


Вы не можете начинать темы
Вы не можете отвечать на сообщения
Вы не можете редактировать свои сообщения
Вы не можете удалять свои сообщения
Вы не можете голосовать в опросах
Вы не можете прикреплять файлы к сообщениям
Вы не можете скачивать файлы

Сайт не предоставляет электронные версии произведений, а занимается лишь коллекционированием и каталогизацией ссылок, присылаемых и публикуемых на форуме нашими читателями. Если вы являетесь правообладателем какого-либо представленного материала и не желаете, чтобы ссылка на него находилась в нашем каталоге, свяжитесь с нами, и мы незамедлительно удалим ее. Файлы для обмена на трекере предоставлены пользователями сайта, и администрация не несет ответственности за их содержание. Просьба не заливать файлы, защищенные авторскими правами, а также файлы нелегального содержания!