+100


 

[Цитировать]

-Золото / Oro (2017) BDRip-Производство: Испания / Aralan Films S.L.
Жанр: Драма, приключения, история
Режиссер: Агустин Диас Янес
Актеры: Рауль Аревало, Барбара Ленни, Оскар Хаенада, Хосе Коронадо, Хосе Мануэль Сервино, Антонио Дечент, Хуан Хосе Бальеста, Луис Кальехо, Анна Кастильо, Андрес Гертрудикс
Описание:
1538 год, джунгли Амазонии. Король Испании и император Священной Римской империи Карл V посылает экспедицию испанских солдат на поиски легендарного Золотого города. Оказавшись в одиночестве в джунглях, солдаты должны противостоять не только враждебным племенам, но и внутренним распрям. Главой экспедиции назначен пожилой и слабый здоровьем дон Гонзало, женатый на молодой красавице донье Ане. Однако на лидерство и донью Ану претендуют правая рука Гонзало Альферез Горриаменди и солдат Мартин Де Вила. Соперничество и ненависть между ними могут оказаться куда опаснее, чем джунгли и скрывающиеся в них туземцы.

Рейтинг MPAA: R (лицам до 17 лет обязательно присутствие взрослого)
Дата мировой премьеры: 6 ноября 2017
Продолжительность: 01:42:03
Качество видео: BDRip
Перевод: Многоголосый закадровый, любительский (Синема УС)
Субтитры: Отсутствуют
Реклама: Присутствуют вставки текстовой рекламы!
Видео: AVC, 1280x536, 5 760 Kbps
Аудио: AC-3, 2 ch, 448 Kbps

MediaInfo

Общее
Полное имя : E:\NNM\Золото\Oro 2017 BDRip 720p.mkv
Формат : Matroska
Версия формата : Version 2
Размер файла : 4,52 Гбайт
Продолжительность : 1 ч. 42 м.
Режим общего битрейта : Переменный
Общий поток : 6334 Кбит/сек
Программа кодирования : libmatroska 1.4.1
Видео
Идентификатор : 1
Формат : AVC
Формат/Информация : Advanced Video Codec
Профиль формата : High@L4.1
Настройки формата : CABAC / 4 Ref Frames
Параметр CABAC формата : Да
Параметр RefFrames формата : 4 кадра
Идентификатор кодека : V_MPEG4/ISO/AVC
Продолжительность : 1 ч. 42 м.
Вид битрейта : Переменный
Битрейт : 5760 Кбит/сек
Максимальный битрейт : 6700 Кбит/сек
Ширина : 1280 пикселей
Высота : 536 пикселей
Соотношение сторон : 2,40:1
Режим частоты кадров : Постоянный
Частота кадров : 23,976 (24000/1001) кадра/сек
Стандарт вещания : Component
Цветовое пространство : YUV
Субдискретизация насыщенности : 4:2:0
Битовая глубина : 8 бит
Тип развёртки : Прогрессивная
Бит/(Пиксели*Кадры) : 0.350
Размер потока : 4,11 Гбайт (91%)
Default : Нет
Forced : Нет
Аудио
Идентификатор : 2
Формат : AC-3
Формат/Информация : Audio Coding 3
Идентификатор кодека : A_AC3
Продолжительность : 1 ч. 42 м.
Вид битрейта : Постоянный
Битрейт : 448 Кбит/сек
Каналы : 2 канала
Расположение каналов : Front: L R
Частота : 48,0 КГц
Частота кадров : 31,250 кадров/сек (1536 SPF)
Битовая глубина : 16 бит
Метод сжатия : С потерями
Размер потока : 327 Мбайт (7%)
ServiceKind/String : Complete Main
Default : Нет
Forced : Нет
Скриншоты:




Показать сообщения:    

Текущее время: 23-Июн 13:33

Часовой пояс: UTC + 11


Вы не можете начинать темы
Вы не можете отвечать на сообщения
Вы не можете редактировать свои сообщения
Вы не можете удалять свои сообщения
Вы не можете голосовать в опросах
Вы не можете прикреплять файлы к сообщениям
Вы не можете скачивать файлы

Сайт не предоставляет электронные версии произведений, а занимается лишь коллекционированием и каталогизацией ссылок, присылаемых и публикуемых на форуме нашими читателями. Если вы являетесь правообладателем какого-либо представленного материала и не желаете, чтобы ссылка на него находилась в нашем каталоге, свяжитесь с нами, и мы незамедлительно удалим ее. Файлы для обмена на трекере предоставлены пользователями сайта, и администрация не несет ответственности за их содержание. Просьба не заливать файлы, защищенные авторскими правами, а также файлы нелегального содержания!