+100


Топ за 24 часа
 
 

[Цитировать]

- Остров (2018) HDTV [H.264/1080i-LQ] (сезон 2, серии 1-19 из 19) -Производство: Россия / "Солярис Промо Продакшн", Кинокомпания "Остров", IKa film
Жанр: комедия
Режиссер: Артем Насыбулин, Михаил Старчак, Александр Наумов
Актеры: Янина Студилина, Денис Косяков, Ирина Вилкова, Кирилл Мелехов, Анастасия Асеева, Анфиса Вистингаузен, Григорий Калинин, Евгений Кулик, Роман Хан, Олеся Жураковская и др.
Описание:
Четыре молодых человека и четыре девушки при поддержки админа Хуня и продюсера Тамары продолжают борьбу за выживание на необитаемом острове, расположенном в Индийском океане. Отпуск этой восьмёрки явно затянулся. Парни и девушки больше не думают о том, чтобы выиграть в несуществующем реалити. Они хотят лишь одного: побыстрее убраться со ставшего ненавистным им острова и наконец-то попасть домой. К счастью для обитателей острова, в этом богом забытом месте появляется организатор реалити-шоу. Он собирается заняться отправкой героев обратно в Москву, но, к несчастью, оказывается в руках у местных пиратов...

Возраст: 16+ (зрителям, достигшим 16 лет)
Продолжительность: ~00:25:00 серия
Качество видео: HDTV
Видео: AVC/H.264, 1920x1080 (16:9), ~7865 Kbps
Аудио: MP2, 2 ch, 192 Kbps

MediaInfo

General
ID : 1 (0x1)
Complete name : F:\СЕРИАЛЫ\ОСТРОВ\Остров.s02.2018.HDTV.(1080i).Nikolspup\01.Остров.s02.2018.HDTV.(1080i).Nikolspup.ts
Format : MPEG-TS
File size : 1.48 GiB
Duration : 25 min 20 s
Overall bit rate mode : Variable
Overall bit rate : 8 346 kb/s
Video
ID : 256 (0x100)
Menu ID : 1 (0x1)
Format : AVC
Format/Info : Advanced Video Codec
Format profile : High@L4.1
Format settings : CABAC / 3 Ref Frames
Format settings, CABAC : Yes
Format settings, ReFrames : 3 frames
Codec ID : 27
Duration : 25 min 20 s
Bit rate mode : Constant
Bit rate : 7 865 kb/s
Width : 1 920 pixels
Height : 1 080 pixels
Display aspect ratio : 16:9
Frame rate : 25.000 FPS
Standard : PAL
Color space : YUV
Chroma subsampling : 4:2:0
Bit depth : 8 bits
Scan type : Progressive
Bits/(Pixel*Frame) : 0.152
Stream size : 1.37 GiB (93%)
Color range : Limited
Color primaries : BT.709
Transfer characteristics : BT.709
Matrix coefficients : BT.709
Audio
ID : 257 (0x101)
Menu ID : 1 (0x1)
Format : MPEG Audio
Format version : Version 1
Format profile : Layer 2
Codec ID : 3
Duration : 25 min 20 s
Bit rate mode : Constant
Bit rate : 192 kb/s
Channel(s) : 2 channels
Sampling rate : 48.0 kHz
Frame rate : 41.667 FPS (1152 SPF)
Compression mode : Lossy
Stream size : 34.8 MiB (2%)
Language : English
Скриншоты:




Показать сообщения:    

Текущее время: 23-Июн 13:32

Часовой пояс: UTC + 11


Вы не можете начинать темы
Вы не можете отвечать на сообщения
Вы не можете редактировать свои сообщения
Вы не можете удалять свои сообщения
Вы не можете голосовать в опросах
Вы не можете прикреплять файлы к сообщениям
Вы не можете скачивать файлы

Сайт не предоставляет электронные версии произведений, а занимается лишь коллекционированием и каталогизацией ссылок, присылаемых и публикуемых на форуме нашими читателями. Если вы являетесь правообладателем какого-либо представленного материала и не желаете, чтобы ссылка на него находилась в нашем каталоге, свяжитесь с нами, и мы незамедлительно удалим ее. Файлы для обмена на трекере предоставлены пользователями сайта, и администрация не несет ответственности за их содержание. Просьба не заливать файлы, защищенные авторскими правами, а также файлы нелегального содержания!