+100


Топ за 24 часа
 
 

[Цитировать]

-Грязь / Dirt (2018) WEB-DLRip-Производство: США / ESX Entertainment
Жанр: Драма, спорт
Режиссер: Алекс Ранаривело
Актеры: Кевин Диллон, Дерон Хортон, Кристина Мур, Нтаре Мвине, Доминик Девор, Мэттью Глэйв, Блейк Херон, Деван Лонг, Джесс Вудроу
Описание:
Пытаясь спасти свою команду от поражения в гоночном чемпионате, Рик нанимает юного угощника машин, чтобы дать ему второй шанс. По мере развития событий, парень становится неотъемлемой частью команды. Демонстрируя отличные навыки ремонта машин, он начинает конкурировать с главным гонщиком в команде.

Рейтинг MPAA: PG-13 (детям до 13 лет просмотр нежелателен)
Дата мировой премьеры: 6 марта 2018
Продолжительность: 01:41:26
Качество видео: WEB-DLRip
Перевод: Многоголосый закадровый, любительский (Синема УС)
Субтитры: Отсутствуют
Реклама: Присутствуют вставки текстовой рекламы!
Видео: MPEG4, XviD, 720x304, 1601 Kbps
Аудио: AC-3, 48.0 KHz, 2 ch, 384 Kbps

MediaInfo

Общее
Полное имя : E:\NNM\Грязь\Dirt 2018 WEB-DLRip.avi
Формат : AVI
Формат/Информация : Audio Video Interleave
Профиль формата : OpenDML
Размер файла : 1,42 Гбайт
Продолжительность : 1 ч. 41 м.
Общий поток : 1998 Кбит/сек
Видео
Идентификатор : 0
Формат : MPEG-4 Visual
Профиль формата : Advanced Simple@L5
Настройки формата : BVOP2
Параметр BVOP формата : 2
Параметр QPel формата : Нет
Параметр GMC формата : Без точки перехода
Параметр матрицы формата : Default (MPEG)
Идентификатор кодека : XVID
Идентификатор кодека/Подсказка : XviD
Продолжительность : 1 ч. 41 м.
Битрейт : 1601 Кбит/сек
Ширина : 720 пикселей
Высота : 304 пикселя
Соотношение сторон : 2,35:1
Частота кадров : 23,976 (24000/1001) кадра/сек
Цветовое пространство : YUV
Субдискретизация насыщенности : 4:2:0
Битовая глубина : 8 бит
Тип развёртки : Прогрессивная
Метод сжатия : С потерями
Бит/(Пиксели*Кадры) : 0.305
Размер потока : 1,13 Гбайт (80%)
Библиотека кодирования : XviD 1.2.1 (UTC 2008-12-04)
Аудио
Идентификатор : 1
Формат : AC-3
Формат/Информация : Audio Coding 3
Идентификатор кодека : 2000
Продолжительность : 1 ч. 41 м.
Вид битрейта : Постоянный
Битрейт : 384 Кбит/сек
Каналы : 2 канала
Расположение каналов : Front: L R
Частота : 48,0 КГц
Частота кадров : 31,250 кадров/сек (1536 SPF)
Битовая глубина : 16 бит
Метод сжатия : С потерями
Размер потока : 279 Мбайт (19%)
Выравнивание : Соединение по промежуткам
Продолжительность промежутка : 32 мс. (0,77 видеокадр)
ServiceKind/String : Complete Main
Скриншоты:




Показать сообщения:    

Текущее время: 20-Июн 11:21

Часовой пояс: UTC + 11


Вы не можете начинать темы
Вы не можете отвечать на сообщения
Вы не можете редактировать свои сообщения
Вы не можете удалять свои сообщения
Вы не можете голосовать в опросах
Вы не можете прикреплять файлы к сообщениям
Вы не можете скачивать файлы

Сайт не предоставляет электронные версии произведений, а занимается лишь коллекционированием и каталогизацией ссылок, присылаемых и публикуемых на форуме нашими читателями. Если вы являетесь правообладателем какого-либо представленного материала и не желаете, чтобы ссылка на него находилась в нашем каталоге, свяжитесь с нами, и мы незамедлительно удалим ее. Файлы для обмена на трекере предоставлены пользователями сайта, и администрация не несет ответственности за их содержание. Просьба не заливать файлы, защищенные авторскими правами, а также файлы нелегального содержания!