+100


Топ за 24 часа
 
 

[Цитировать]

- Остров (2018) WEBRip -Производство: Россия / "Солярис Промо Продакшн", Кинокомпания "Остров", IKa film
Жанр: комедия
Режиссер: Александр Наумов, Михаил Старчак, Артем Насыбулин
Актеры: Янина Студилина, Денис Косяков, Ирина Вилкова, Кирилл Мелехов, Анастасия Асеева, Анфиса Вистингаузен, Григорий Калинин, Евгений Кулик, Роман Хан, Олеся Жураковская, Леонид Моложанов, Сергей Бурунов и др.
Описание:
«Остров» - комедийный сериал на телеканале ТНТ, события которого разворачиваются на небольшом необитаемом острове. На место прибыла съемочная команда и группа участников. По идеи программы участникам предстоит жесткая борьба друг с другом, а так же с дикими условиями проживания. Они будут получать задания, которые должны выполнить. И каждое успешно выполненное задание увеличивает их денежный счет.

Возраст: 16+ (зрителям, достигшим 16 лет)
Дата российской премьеры: 5 февраля 2018
Продолжительность: ~00:25:00 серия
Качество видео: WEBRip
Видео: Xvid, 720x400 (16:9), ~1655 Kbps
Аудио: AC3, 2 ch, 192 Kbps

MediaInfo

Общее
Полное имя : G:\Остров (2018).WEBRip.by.Алехаndr\Серия 01.by.Алехаndr.avi
Формат : AVI
Формат/Информация : Audio Video Interleave
Размер файла : 340 Мбайт
Продолжительность : 25 м. 32 с.
Общий поток : 1863 Кбит/сек
Программа кодирования : Lavf54.63.104
Видео
Идентификатор : 0
Формат : xvid
Идентификатор кодека : xvid
Продолжительность : 25 м. 32 с.
Битрейт : 1660 Кбит/сек
Ширина : 720 пикселей
Высота : 400 пикселей
Соотношение сторон : 16:9
Частота кадров : 25,000 кадров/сек
Тип развёртки : Прогрессивная
Бит/(Пиксели*Кадры) : 0.231
Размер потока : 303 Мбайт (89%)
Аудио
Идентификатор : 1
Формат : AC-3
Формат/Информация : Audio Coding 3
Идентификатор кодека : 2000
Продолжительность : 25 м. 32 с.
Вид битрейта : Постоянный
Битрейт : 192 Кбит/сек
Каналы : 2 канала
Расположение каналов : Front: L R
Частота : 44,1 КГц
Частота кадров : 28,711 кадров/сек (1536 SPF)
Битовая глубина : 16 бит
Метод сжатия : С потерями
Размер потока : 35,1 Мбайт (10%)
Выравнивание : Соединение по промежуткам
Продолжительность промежутка : 35 мс. (0,87 видеокадр)
ServiceKind/String : Complete Main
Скриншоты:




Показать сообщения:    

Текущее время: 23-Июн 13:27

Часовой пояс: UTC + 11


Вы не можете начинать темы
Вы не можете отвечать на сообщения
Вы не можете редактировать свои сообщения
Вы не можете удалять свои сообщения
Вы не можете голосовать в опросах
Вы не можете прикреплять файлы к сообщениям
Вы не можете скачивать файлы

Сайт не предоставляет электронные версии произведений, а занимается лишь коллекционированием и каталогизацией ссылок, присылаемых и публикуемых на форуме нашими читателями. Если вы являетесь правообладателем какого-либо представленного материала и не желаете, чтобы ссылка на него находилась в нашем каталоге, свяжитесь с нами, и мы незамедлительно удалим ее. Файлы для обмена на трекере предоставлены пользователями сайта, и администрация не несет ответственности за их содержание. Просьба не заливать файлы, защищенные авторскими правами, а также файлы нелегального содержания!