+100


Топ за 24 часа
 
 

[Цитировать]

-Чужая (2018) WEB-DLRip-Производство: Россия / Атлантик Продакшн и Кинокомпания Дерево
Жанр: мелодрама
Режиссер: Павел Мальков
Актеры: Елена Аросьева, Дмитрий Исаев, Евгений Пронин, Денис Матросов, Светлана Щедрина, Диана Дезмари, Галина Бокашевская, Михаил Разумовский, Вячеслав Аркунов, Полина Ульянова и др.
Описание:
Катя Полякова два года назад попала в автомобильную аварию. Сейчас она проходит реабилитацию, швы заживают отлично. Ее во всем поддерживает любящий муж Сергей. Девушку вгоняет в отчаяние только одно – она потеряла память, и за эти годы так ничего и не смогла вспомнить: ни аварию, ни мужа, ни свою прошлую жизнь. Все вокруг кажется Кате чужим. Недавно в парке она встретила знакомого из прошлой жизни - Дмитрия, которого тоже не смогла вспомнить. Дмитрий узнал ее, но быстро ушел, ничего не объяснив. Лишь попросил не рассказывать ничего мужу...

Дата премьеры в России: 5 марта 2018
Продолжительность: ~00:51:00 серия
Качество видео: WEB-DLRip
Видео: XviD, 720x400 (16:9), ~1559 Kbps
Аудио: AC-3, 48.0 KHz, 2 ch, 192 Kbps

MediaInfo

Общее
Полное имя : E:\NNM\Чужая\Chuzhaya 2017 WEB-DLRip\01.Чужая.avi
Формат : AVI
Формат/Информация : Audio Video Interleave
Размер файла : 648 Мбайт
Продолжительность : 51 м. 27 с.
Общий поток : 1760 Кбит/сек
Программа кодирования : VirtualDubMod 1.5.10.3 |(build 2550/release)
Библиотека кодирования : VirtualDubMod build 2550/release
Видео
Идентификатор : 0
Формат : MPEG-4 Visual
Профиль формата : Advanced Simple@L5
Настройки формата : BVOP1 / Custom Matrix
Параметр BVOP формата : 1
Параметр QPel формата : Нет
Параметр GMC формата : Без точки перехода
Параметр матрицы формата : Выборочная
Идентификатор кодека : XVID
Идентификатор кодека/Подсказка : XviD
Продолжительность : 51 м. 27 с.
Битрейт : 1559 Кбит/сек
Ширина : 720 пикселей
Высота : 400 пикселей
Соотношение сторон : 16:9
Частота кадров : 25,000 кадров/сек
Цветовое пространство : YUV
Субдискретизация насыщенности : 4:2:0
Битовая глубина : 8 бит
Тип развёртки : Прогрессивная
Метод сжатия : С потерями
Бит/(Пиксели*Кадры) : 0.216
Размер потока : 574 Мбайт (89%)
Библиотека кодирования : XviD 73
Аудио
Идентификатор : 1
Формат : AC-3
Формат/Информация : Audio Coding 3
Идентификатор кодека : 2000
Продолжительность : 51 м. 27 с.
Вид битрейта : Постоянный
Битрейт : 192 Кбит/сек
Каналы : 2 канала
Расположение каналов : Front: L R
Частота : 48,0 КГц
Частота кадров : 31,250 кадров/сек (1536 SPF)
Битовая глубина : 16 бит
Метод сжатия : С потерями
Размер потока : 70,7 Мбайт (11%)
Выравнивание : Разделение по промежуткам
Продолжительность промежутка : 40 мс. (1,00 видеокадр)
Время предзагрузки промежутка : 500 мс.
ServiceKind/String : Complete Main
Скриншоты:




Показать сообщения:    

Текущее время: 23-Июн 13:37

Часовой пояс: UTC + 11


Вы не можете начинать темы
Вы не можете отвечать на сообщения
Вы не можете редактировать свои сообщения
Вы не можете удалять свои сообщения
Вы не можете голосовать в опросах
Вы не можете прикреплять файлы к сообщениям
Вы не можете скачивать файлы

Сайт не предоставляет электронные версии произведений, а занимается лишь коллекционированием и каталогизацией ссылок, присылаемых и публикуемых на форуме нашими читателями. Если вы являетесь правообладателем какого-либо представленного материала и не желаете, чтобы ссылка на него находилась в нашем каталоге, свяжитесь с нами, и мы незамедлительно удалим ее. Файлы для обмена на трекере предоставлены пользователями сайта, и администрация не несет ответственности за их содержание. Просьба не заливать файлы, защищенные авторскими правами, а также файлы нелегального содержания!