+100


 

[Цитировать]

-Чудо / Wonder (2017) UHD BDRemux [H.265/2160p] [4K, HDR, 10-bit]«Are you ready to meet Auggie Pullman?»-Производство: США, Гонконг / Lionsgate
Жанр: драма, семейный
Режиссер: Стивен Чбоски
Продюсер: Майкл Бегг, Дэн Кларк, Джеффри Харлэкер,
Актеры: Джейкоб Тремблей, Оуэн Уилсон, Изабела Видович, Джулия Робертс, Марк Доцлав, Рукия Бернард, Дженнифер Марч, Мэнди Пэтинкин, Ноа Джуп, Брайс Гейзар
Описание:
С одной стороны мальчик Август Пулман такой же как и другие мальчишки его возраста — любит ходить на дни рождения к друзьям, играть в компьютерные игры, фанатеет от «Звездных войн», играет со своей собакой, ссорится и мирится со старшей сестрой. А с другой — он совсем не такой как другие мальчишки его возраста. Во-первых, Август никогда не ходил в обычную школу — с первого класса с ним дома занималась мама. Во-вторых, Август перенес 27 операций. Из-за очень редкой, но иногда встречающейся генетической ошибки у Августа нет лица. И вот такой мальчик должен пойти в школу. В первый раз. К обычным детям.

Возраст: 12+ (зрителям, достигшим 12 лет)
Рейтинг MPAA: PG (рекомендуется присутствие родителей)
Дата мировой премьеры: 14 ноября 2017
Премьера (РФ): 16 ноября 2017, «Централ Партнершип»

Релиз от: ExKinoRay
Продолжительность: 01:53:45
Качество: UHD BDRemux (HDR)
Перевод: Дублированный (iTunes)
Субтитры: Русские, английские
Видео: H.265/HEVC, 3840x2160, (16:9), 51.5 Mbps, 23.976 fps
Аудио 1: AC3, 6 ch, 384 kbps - Русский
Аудио 2: TrueHD, 8 ch, 3496 kbps - Английский
Аудио 3: AC3, 6 ch, 448 kbps - Английский, AC3 CORE
Аудио 4: AC3, 2 ch, 640 kbps - Английский, Audiodescription
Аудио 5: AC3, 2 ch, 192 kbps - Английский, Commentary

MediaInfo

General
Unique ID : 212165421922564489218442013022657844426 (0x9F9D92ECB5FE75F55BCEDC42E06614CA)
Complete name : Wonder.2017.2160p.BluRay.REMUX.HEVC.HDR.IVA(RUS.ENG).ExKinoRay.mkv
Format : Matroska
Format version : Version 4 / Version 2
File size : 44.9 GiB
Duration : 1 h 53 min
Overall bit rate mode : Variable
Overall bit rate : 56.8 Mb/s
Movie name : Wonder.2017.2160p.BluRay.REMUX.HEVC.HDR.IVA(RUS.ENG).ExKinoRay
Encoded date : UTC 2018-03-07 22:35:25
Writing application : mkvmerge v21.0.0 ('Tardigrades Will Inherit The Earth') 64-bit
Writing library : libebml v1.3.5 + libmatroska v1.4.8
Cover : Yes
Attachments : cover.jpg
Video
ID : 1
Format : HEVC
Format/Info : High Efficiency Video Coding
Format profile : Main 10@L5.1@High
Codec ID : V_MPEGH/ISO/HEVC
Duration : 1 h 53 min
Bit rate : 51.5 Mb/s
Width : 3 840 pixels
Height : 2 160 pixels
Display aspect ratio : 16:9
Frame rate mode : Constant
Frame rate : 23.976 (24000/1001) FPS
Color space : YUV
Chroma subsampling : 4:2:0 (Type 2)
Bit depth : 10 bits
Bits/(Pixel*Frame) : 0.259
Stream size : 40.7 GiB (91%)
Title : Wonder.2017.2160p.BluRay.REMUX.HEVC.HDR
Language : English
Default : Yes
Forced : No
Color range : Limited
Color primaries : BT.2020
Transfer characteristics : PQ
Matrix coefficients : BT.2020 non-constant
Mastering display color primaries : Display P3
Mastering display luminance : min: 0.0020 cd/m2, max: 1000 cd/m2
Maximum Content Light Level : 1000 cd/m2
Maximum Frame-Average Light Level : 198 cd/m2
Audio #1
ID : 2
Format : AC-3
Format/Info : Audio Coding 3
Codec ID : A_AC3
Duration : 1 h 53 min
Bit rate mode : Constant
Bit rate : 384 kb/s
Channel(s) : 6 channels
Channel positions : Front: L C R, Side: L R, LFE
Sampling rate : 48.0 kHz
Frame rate : 31.250 FPS (1536 SPF)
Bit depth : 16 bits
Compression mode : Lossy
Stream size : 311 MiB (1%)
Title : | Дублированный, iTunes |
Language : Russian
Service kind : Complete Main
Default : Yes
Forced : No
Audio #2
ID : 3
Format : TrueHD
Codec ID : A_TRUEHD
Duration : 1 h 53 min
Bit rate mode : Variable
Bit rate : 3 496 kb/s
Maximum bit rate : 5 454 kb/s
Channel(s) : 8 channels
Channel positions : Front: L C R, Side: L R, Back: L R, LFE
Sampling rate : 48.0 kHz
Frame rate : 1 200.000 FPS (40 SPF)
Compression mode : Lossless
Delay relative to video : 1 ms
Stream size : 2.76 GiB (6%)
Title : | Original |
Language : English
Default : No
Forced : No
Audio #3
ID : 4
Format : AC-3
Format/Info : Audio Coding 3
Codec ID : A_AC3
Duration : 1 h 53 min
Bit rate mode : Constant
Bit rate : 448 kb/s
Channel(s) : 6 channels
Channel positions : Front: L C R, Side: L R, LFE
Sampling rate : 48.0 kHz
Frame rate : 31.250 FPS (1536 SPF)
Bit depth : 16 bits
Compression mode : Lossy
Delay relative to video : 1 ms
Stream size : 363 MiB (1%)
Title : | Original, AC3 CORE |
Language : English
Service kind : Complete Main
Default : No
Forced : No
Audio #4
ID : 5
Format : AC-3
Format/Info : Audio Coding 3
Codec ID : A_AC3
Duration : 1 h 53 min
Bit rate mode : Constant
Bit rate : 640 kb/s
Channel(s) : 2 channels
Channel positions : Front: L R
Sampling rate : 48.0 kHz
Frame rate : 31.250 FPS (1536 SPF)
Bit depth : 16 bits
Compression mode : Lossy
Delay relative to video : 23 ms
Stream size : 518 MiB (1%)
Title : | Audiodescription |
Language : English
Service kind : Complete Main
Default : No
Forced : No
Audio #5
ID : 6
Format : AC-3
Format/Info : Audio Coding 3
Codec ID : A_AC3
Duration : 1 h 53 min
Bit rate mode : Constant
Bit rate : 192 kb/s
Channel(s) : 2 channels
Channel positions : Front: L R
Sampling rate : 48.0 kHz
Frame rate : 31.250 FPS (1536 SPF)
Bit depth : 16 bits
Compression mode : Lossy
Stream size : 155 MiB (0%)
Title : | Commentary |
Language : English
Service kind : Complete Main
Default : No
Forced : No
Text #1
ID : 7
Format : UTF-8
Codec ID : S_TEXT/UTF8
Codec ID/Info : UTF-8 Plain Text
Duration : 1 h 44 min
Bit rate : 111 b/s
Count of elements : 1504
Stream size : 85.2 KiB (0%)
Title : Full
Language : Russian
Default : No
Forced : No
Text #2
ID : 8
Format : UTF-8
Codec ID : S_TEXT/UTF8
Codec ID/Info : UTF-8 Plain Text
Duration : 1 h 44 min
Bit rate : 62 b/s
Count of elements : 1468
Stream size : 48.2 KiB (0%)
Title : Full
Language : English
Default : No
Forced : No
Text #3
ID : 9
Format : UTF-8
Codec ID : S_TEXT/UTF8
Codec ID/Info : UTF-8 Plain Text
Duration : 1 h 44 min
Bit rate : 68 b/s
Count of elements : 1633
Stream size : 52.3 KiB (0%)
Title : SDH
Language : English
Default : No
Forced : No
Menu
00:00:00.000 : en:Chapter 1
00:06:04.489 : en:Chapter 2
00:12:18.446 : en:Chapter 3
00:19:23.495 : en:Chapter 4
00:26:23.164 : en:Chapter 5
00:33:06.234 : en:Chapter 6
00:38:54.665 : en:Chapter 7
00:47:19.378 : en:Chapter 8
00:51:42.891 : en:Chapter 9
00:59:36.864 : en:Chapter 10
01:06:05.336 : en:Chapter 11
01:14:59.411 : en:Chapter 12
01:23:18.034 : en:Chapter 13
01:30:36.097 : en:Chapter 14
01:33:19.510 : en:Chapter 15
01:40:43.996 : en:Chapter 16
Скриншоты:




Показать сообщения:    

Текущее время: 22-Апр 05:51

Часовой пояс: UTC + 11


Вы не можете начинать темы
Вы не можете отвечать на сообщения
Вы не можете редактировать свои сообщения
Вы не можете удалять свои сообщения
Вы не можете голосовать в опросах
Вы не можете прикреплять файлы к сообщениям
Вы не можете скачивать файлы

Сайт не предоставляет электронные версии произведений, а занимается лишь коллекционированием и каталогизацией ссылок, присылаемых и публикуемых на форуме нашими читателями. Если вы являетесь правообладателем какого-либо представленного материала и не желаете, чтобы ссылка на него находилась в нашем каталоге, свяжитесь с нами, и мы незамедлительно удалим ее. Файлы для обмена на трекере предоставлены пользователями сайта, и администрация не несет ответственности за их содержание. Просьба не заливать файлы, защищенные авторскими правами, а также файлы нелегального содержания!