+100


Топ за 24 часа
 
 

[Цитировать]

-Чудо / Wonder (2017) BDRemux [H.264/1080p]-Производство: США / Lionsgate, Mandeville Films, Participant Media, Walden Media
Жанр: Драма, семейный
Режиссер: Стивен Чбоски
Актеры: Джейкоб Тремблей, Оуэн Уилсон, Изабела Видович, Джулия Робертс, Марк Доцлав, Рукия Бернард, Дженнифер Марч, Мэнди Пэтинкин, Ноа Джуп, Брайс Гейзар
Описание:
С одной стороны мальчик Август Пулман такой же как и другие мальчишки его возраста — любит ходить на дни рождения к друзьям, играть в компьютерные игры, фанатеет от «Звездных войн», играет со своей собакой, ссорится и мирится со старшей сестрой. А с другой — он совсем не такой как другие мальчишки его возраста. Во-первых, Август никогда не ходил в обычную школу — с первого класса с ним дома занималась мама. Во-вторых, Август перенес 27 операций. Из-за очень редкой, но иногда встречающейся генетической ошибки у Августа нет лица. И вот такой мальчик должен пойти в школу. В первый раз. К обычным детям.

Возраст: 12+ (зрителям, достигшим 12 лет)
Рейтинг MPAA: PG (рекомендуется присутствие родителей)
Дата мировой премьеры: 14 ноября 2017
Дата российской премьеры: 16 ноября 2017
Цифровой релиз: 08 марта 2018
Продолжительность: 01:53:10
Качество видео: BDRemux
Перевод: Дублированный (iTunes)
Субтитры: Русские (full), английские (full, SDH)
Видео: AVC, 1920x1080, 29.0 Mbps
Аудио #1: AC-3, 6 ch, 384 Kbps | Русский
Аудио #2: TrueHD, 8 ch, 3497 Kbps | Английский
Аудио #3: AC-3, 6 ch, 640 Kbps | Английский

MediaInfo

Общее
Уникальный идентификатор : 211076084473503224256281739662084801920 (0x9ECBC67117A702D39FC27AFA0CB40580)
Полное имя : E:\NNM\Чудо\Wonder 2017 BDRemuux 1080p ExKinoRay.mkv
Формат : Matroska
Версия формата : Version 4 / Version 2
Размер файла : 26,5 Гбайт
Продолжительность : 1 ч. 53 м.
Режим общего битрейта : Переменный
Общий поток : 33,6 Мбит/сек
Дата кодирования : UTC 2018-03-07 20:08:47
Программа кодирования : mkvmerge v21.0.0 ('Tardigrades Will Inherit The Earth') 64-bit
Библиотека кодирования : libebml v1.3.5 + libmatroska v1.4.8
Видео
Идентификатор : 1
Формат : AVC
Формат/Информация : Advanced Video Codec
Профиль формата : High@L4.1
Настройки формата : CABAC / 4 Ref Frames
Параметр CABAC формата : Да
Параметр RefFrames формата : 4 кадра
Идентификатор кодека : V_MPEG4/ISO/AVC
Продолжительность : 1 ч. 53 м.
Вид битрейта : Переменный
Битрейт : 29,0 Мбит/сек
Максимальный битрейт : 37,0 Мбит/сек
Ширина : 1920 пикселей
Высота : 1080 пикселей
Соотношение сторон : 16:9
Режим частоты кадров : Постоянный
Частота кадров : 23,976 (24000/1001) кадра/сек
Цветовое пространство : YUV
Субдискретизация насыщенности : 4:2:0
Битовая глубина : 8 бит
Тип развёртки : Прогрессивная
Бит/(Пиксели*Кадры) : 0.583
Размер потока : 22,9 Гбайт (86%)
Язык : English
Default : Да
Forced : Нет
Аудио #1
Идентификатор : 2
Формат : AC-3
Формат/Информация : Audio Coding 3
Идентификатор кодека : A_AC3
Продолжительность : 1 ч. 53 м.
Вид битрейта : Постоянный
Битрейт : 384 Кбит/сек
Каналы : 6 каналов
Расположение каналов : Front: L C R, Side: L R, LFE
Частота : 48,0 КГц
Частота кадров : 31,250 кадров/сек (1536 SPF)
Битовая глубина : 16 бит
Метод сжатия : С потерями
Размер потока : 311 Мбайт (1%)
Заголовок : iTunes
Язык : Russian
ServiceKind/String : Complete Main
Default : Да
Forced : Да
Аудио #2
Идентификатор : 3
Формат : TrueHD
Идентификатор кодека : A_TRUEHD
Продолжительность : 1 ч. 53 м.
Вид битрейта : Переменный
Битрейт : 3497 Кбит/сек
Максимальный битрейт : 4647 Кбит/сек
Каналы : 8 каналов
Расположение каналов : Front: L C R, Side: L R, Back: L R, LFE
Частота : 48,0 КГц
Частота кадров : 1200,000 кадров/сек (40 SPF)
Метод сжатия : Без потерь
Размер потока : 2,76 Гбайт (10%)
Заголовок : Original
Язык : English
Default : Нет
Forced : Нет
Аудио #3
Идентификатор : 4
Формат : AC-3
Формат/Информация : Audio Coding 3
Идентификатор кодека : A_AC3
Продолжительность : 1 ч. 53 м.
Вид битрейта : Постоянный
Битрейт : 640 Кбит/сек
Каналы : 6 каналов
Расположение каналов : Front: L C R, Side: L R, LFE
Частота : 48,0 КГц
Частота кадров : 31,250 кадров/сек (1536 SPF)
Битовая глубина : 16 бит
Метод сжатия : С потерями
Размер потока : 518 Мбайт (2%)
Язык : English
ServiceKind/String : Complete Main
Default : Нет
Forced : Нет
Текст #1
Идентификатор : 5
Формат : UTF-8
Идентификатор кодека : S_TEXT/UTF8
Идентификатор кодека/Информация : UTF-8 Plain Text
Продолжительность : 1 ч. 44 м.
Битрейт : 111 бит/сек
ElementCount : 1504
Размер потока : 85,2 Кбайт (0%)
Заголовок : full
Язык : Russian
Default : Нет
Forced : Нет
Текст #2
Идентификатор : 6
Формат : UTF-8
Идентификатор кодека : S_TEXT/UTF8
Идентификатор кодека/Информация : UTF-8 Plain Text
Продолжительность : 1 ч. 44 м.
Битрейт : 62 бит/сек
ElementCount : 1468
Размер потока : 48,2 Кбайт (0%)
Заголовок : full
Язык : English
Default : Нет
Forced : Нет
Текст #3
Идентификатор : 7
Формат : UTF-8
Идентификатор кодека : S_TEXT/UTF8
Идентификатор кодека/Информация : UTF-8 Plain Text
Продолжительность : 1 ч. 44 м.
Битрейт : 68 бит/сек
ElementCount : 1633
Размер потока : 52,3 Кбайт (0%)
Заголовок : SDH
Язык : English
Default : Нет
Forced : Нет
Меню
00:00:00.000 : en:00:00:00.000
00:06:04.489 : en:00:06:04.489
00:12:18.446 : en:00:12:18.446
00:19:23.496 : en:00:19:23.496
00:26:23.165 : en:00:26:23.165
00:33:06.234 : en:00:33:06.234
00:38:54.666 : en:00:38:54.666
00:47:19.378 : en:00:47:19.378
00:51:42.891 : en:00:51:42.891
00:59:36.865 : en:00:59:36.865
01:06:05.336 : en:01:06:05.336
01:14:59.411 : en:01:14:59.411
01:23:18.034 : en:01:23:18.034
01:30:36.097 : en:01:30:36.097
01:33:19.510 : en:01:33:19.510
01:40:43.996 : en:01:40:43.996
Скриншоты:




Показать сообщения:    

Текущее время: 20-Июн 11:21

Часовой пояс: UTC + 11


Вы не можете начинать темы
Вы не можете отвечать на сообщения
Вы не можете редактировать свои сообщения
Вы не можете удалять свои сообщения
Вы не можете голосовать в опросах
Вы не можете прикреплять файлы к сообщениям
Вы не можете скачивать файлы

Сайт не предоставляет электронные версии произведений, а занимается лишь коллекционированием и каталогизацией ссылок, присылаемых и публикуемых на форуме нашими читателями. Если вы являетесь правообладателем какого-либо представленного материала и не желаете, чтобы ссылка на него находилась в нашем каталоге, свяжитесь с нами, и мы незамедлительно удалим ее. Файлы для обмена на трекере предоставлены пользователями сайта, и администрация не несет ответственности за их содержание. Просьба не заливать файлы, защищенные авторскими правами, а также файлы нелегального содержания!