+100


Топ за 24 часа
 
 

[Цитировать]

-Полуночники / Midnighters (2017) WEB-DL-Производство: США / Graystone Pictures
Жанр: Триллер
Режиссер: Джулиус Рамсей
Актеры: Александра Эссоу, Перла Аней-Жардине, Дилан МакТи, Уорд Хортон, Эндрю Ротенберг, Джозеф Андерсон, К.С. Фальдаш, Уильям Блумфилд, Дэвид Спорадора, Мэтт Майерс
Описание:
Возвращаясь на машине с новогоднего корпоратива, Линдси и Джэфф сбивают незнакомца на пустынной дороге. Телефон там не ловит, поэтому они затаскивают пострадавшего в машину и везут в больницу, но по дороге бедолага перестаёт дышать. Тогда парочка решает протрезветь, прежде чем сдаться полиции, и отвозит тело к себе в гараж. Тем временем младшая сестра Линдси приходит домой, и на нее нападает оказавшийся живым сбитый незнакомец.

Дата мировой премьеры: 19 июня 2017
Продолжительность: 01:33:33
Качество видео: WEB-DL
Перевод: Двухголосый закадровый, любительский (HiWay Grope)
Субтитры: Отсутствуют
Видео: AVC, 1280x530, 4 019 Kbps
Аудио #1: AC-3, 6 ch, 384 Kbps | Русский
Аудио #2: AC-3, 6 ch, 384 Kbps | Английский

MediaInfo

Общее
Уникальный идентификатор : 237207371854785349922581151831472473136 (0xB2747A6162272985BAD26D85BAC40430)
Полное имя : E:\NNM\Полуночники\Midnighters 2017 WEB-DL 720p-LQ.mkv
Формат : Matroska
Версия формата : Version 2
Размер файла : 3,19 Гбайт
Продолжительность : 1 ч. 33 м.
Общий поток : 4885 Кбит/сек
Дата кодирования : UTC 2018-03-08 05:49:17
Программа кодирования : mkvmerge v7.8.0 ('River Man') 32bit built on Apr 3 2015 12:11:22
Библиотека кодирования : libebml v1.3.1 + libmatroska v1.4.2
Видео
Идентификатор : 1
Формат : AVC
Формат/Информация : Advanced Video Codec
Профиль формата : Main@L3.1
Настройки формата : 2 Ref Frames
Параметр CABAC формата : Нет
Параметр RefFrames формата : 2 кадра
Идентификатор кодека : V_MPEG4/ISO/AVC
Продолжительность : 1 ч. 33 м.
Битрейт : 4019 Кбит/сек
Ширина : 1280 пикселей
Высота : 530 пикселей
Соотношение сторон : 2,40:1
Режим частоты кадров : Постоянный
Частота кадров : 23,976 (24000/1001) кадра/сек
Цветовое пространство : YUV
Субдискретизация насыщенности : 4:2:0
Битовая глубина : 8 бит
Тип развёртки : Прогрессивная
Бит/(Пиксели*Кадры) : 0.247
Размер потока : 2,63 Гбайт (82%)
Язык : English
Default : Да
Forced : Нет
Аудио #1
Идентификатор : 2
Формат : AC-3
Формат/Информация : Audio Coding 3
Идентификатор кодека : A_AC3
Продолжительность : 1 ч. 33 м.
Вид битрейта : Постоянный
Битрейт : 384 Кбит/сек
Каналы : 6 каналов
Расположение каналов : Front: L C R, Side: L R, LFE
Частота : 48,0 КГц
Частота кадров : 31,250 кадров/сек (1536 SPF)
Битовая глубина : 16 бит
Метод сжатия : С потерями
Размер потока : 257 Мбайт (8%)
Заголовок : HiWay Grope
Язык : Russian
ServiceKind/String : Complete Main
Default : Да
Forced : Да
Аудио #2
Идентификатор : 3
Формат : AC-3
Формат/Информация : Audio Coding 3
Идентификатор кодека : A_AC3
Продолжительность : 1 ч. 33 м.
Вид битрейта : Постоянный
Битрейт : 384 Кбит/сек
Каналы : 6 каналов
Расположение каналов : Front: L C R, Side: L R, LFE
Частота : 48,0 КГц
Частота кадров : 31,250 кадров/сек (1536 SPF)
Битовая глубина : 16 бит
Метод сжатия : С потерями
Размер потока : 257 Мбайт (8%)
Язык : English
ServiceKind/String : Complete Main
Default : Нет
Forced : Нет
Меню
00:00:00.000 : en:1
00:11:55.000 : en:2
00:23:01.000 : en:3
00:34:25.000 : en:4
00:48:17.000 : en:5
00:59:59.000 : en:6
01:10:12.000 : en:7
01:18:41.000 : en:8
01:30:47.000 : en:9
Скриншоты:




Показать сообщения:    

Текущее время: 23-Июн 13:31

Часовой пояс: UTC + 11


Вы не можете начинать темы
Вы не можете отвечать на сообщения
Вы не можете редактировать свои сообщения
Вы не можете удалять свои сообщения
Вы не можете голосовать в опросах
Вы не можете прикреплять файлы к сообщениям
Вы не можете скачивать файлы

Сайт не предоставляет электронные версии произведений, а занимается лишь коллекционированием и каталогизацией ссылок, присылаемых и публикуемых на форуме нашими читателями. Если вы являетесь правообладателем какого-либо представленного материала и не желаете, чтобы ссылка на него находилась в нашем каталоге, свяжитесь с нами, и мы незамедлительно удалим ее. Файлы для обмена на трекере предоставлены пользователями сайта, и администрация не несет ответственности за их содержание. Просьба не заливать файлы, защищенные авторскими правами, а также файлы нелегального содержания!