+100


Топ за 24 часа
 
 

[Цитировать]

- По ту сторону смерти (2017) WEB-DL [H.264/1080p-LQ] -Жанр: детектив, триллер
Режиссер: Сергей Чекалов
Актеры: Сергей Гармаш, Светлана Ходченкова, Виктор Добронравов, Илья Любимов, Виктория Исакова, Борис Невзоров, Александр Рапопорт, Марта Тимофеева, Артем Лысков, Джан Бадмаев и др.
Описание:
Сюжет начинается со странной истории, в которой пытается разобраться следователь СК Глеб Точилин перед выходом на пенсию. Он должен найти исчезнувшее из морга тело Алексея Быстрова, который попал под поезд, а на следующий день… встал и ушёл на своих двоих. В поисках «живого трупа» Точилину помогает сотрудница Института мозга Юлия Дёмина, которую пропавший спас из-под колёс электрички...

Возраст: 16+ (зрителям, достигшим 16 лет)
Дата российской премьеры: 26 февраля 2018
Релиз от: Алехаndr
Продолжительность: ~00:48:00 серия
Качество видео: WEB-DL
Видео: AVC/H.264, 1920x1080 (16:9), ~2790 Kbps
Аудио: AC3, 2 ch, 192 Kbps

MediaInfo

Общее
Уникальный идентификатор : 263044654935486573460584966088783170352 (0xC5E48EC9B1FF9408CC11BB6D89620B30)
Полное имя : G:\По ту сторону смерти (2018).by.Алехаndr\Серия 01.by.Алехаndr.mkv
Формат : Matroska
Версия формата : Version 4 / Version 2
Размер файла : 1,05 Гбайт
Продолжительность : 49 м. 14 с.
Общий поток : 3040 Кбит/сек
Программа кодирования : Lavf57.71.100
Библиотека кодирования : Lavf57.71.100
ErrorDetectionType : Per level 1
Видео
Идентификатор : 1
Формат : AVC
Формат/Информация : Advanced Video Codec
Профиль формата : High@L4
Настройки формата : CABAC / 2 Ref Frames
Параметр CABAC формата : Да
Параметр RefFrames формата : 2 кадра
Идентификатор кодека : V_MPEG4/ISO/AVC
Продолжительность : 49 м. 14 с.
Битрейт : 2788 Кбит/сек
Ширина : 1920 пикселей
Высота : 1080 пикселей
Соотношение сторон : 16:9
Режим частоты кадров : Постоянный
Частота кадров : 25,000 кадров/сек
Цветовое пространство : YUV
Субдискретизация насыщенности : 4:2:0
Битовая глубина : 8 бит
Тип развёртки : Прогрессивная
Бит/(Пиксели*Кадры) : 0.054
Размер потока : 982 Мбайт (92%)
Default : Да
Forced : Нет
Цветовой диапазон : Limited
Основные цвета : BT.709
Характеристики трансфера : BT.709
Коэффициенты матрицы : BT.709
Аудио
Идентификатор : 2
Формат : AC-3
Формат/Информация : Audio Coding 3
Идентификатор кодека : A_AC3
Продолжительность : 49 м. 14 с.
Вид битрейта : Постоянный
Битрейт : 192 Кбит/сек
Каналы : 2 канала
Расположение каналов : Front: L R
Частота : 44,1 КГц
Частота кадров : 28,711 кадров/сек (1536 SPF)
Битовая глубина : 16 бит
Метод сжатия : С потерями
Размер потока : 67,6 Мбайт (6%)
Язык : unknown
ServiceKind/String : Complete Main
Default : Да
Forced : Нет
Скриншоты:




Показать сообщения:    

Текущее время: 24-Июн 04:51

Часовой пояс: UTC + 11


Вы не можете начинать темы
Вы не можете отвечать на сообщения
Вы не можете редактировать свои сообщения
Вы не можете удалять свои сообщения
Вы не можете голосовать в опросах
Вы не можете прикреплять файлы к сообщениям
Вы не можете скачивать файлы

Сайт не предоставляет электронные версии произведений, а занимается лишь коллекционированием и каталогизацией ссылок, присылаемых и публикуемых на форуме нашими читателями. Если вы являетесь правообладателем какого-либо представленного материала и не желаете, чтобы ссылка на него находилась в нашем каталоге, свяжитесь с нами, и мы незамедлительно удалим ее. Файлы для обмена на трекере предоставлены пользователями сайта, и администрация не несет ответственности за их содержание. Просьба не заливать файлы, защищенные авторскими правами, а также файлы нелегального содержания!