+100


Топ за 24 часа
 
 

[Цитировать]

- Три билборда на границе Эббинга, Миссури / Three Billboards Outside Ebbing, Missouri (2017) BDRip [H.264/1080p]-Производство: Великобритания, США, Blueprint Pictures
Жанр: Драма, Криминал
Режиссер: Мартин МакДона
Актеры: Фрэнсис МакДорманд, Вуди Харрельсон, Сэм Рокуэлл, Джон Хоукс, Питер Динклэйдж, Калеб Лэндри Джонс, Лукас Хеджес, Эбби Корниш, Керри Кондон, Даррел Бритт-Гибсон, Желько Иванек, Самара Уивинг, Кларк Питерс
Описание:
Изнасилована и убита девушка. После семи месяцев убийцы так и не были найдены. Милдред Хейс, мама убитой, отчаявшись, решается на неординарный поступок, арендуя три рекламных щита и размещает на них слова: "Как же так, шериф Уиловби? Жертва есть, а преступники не арестованы" С этого момента и начинается война травмированной матери и шерифа, которому симпатизирует весь город.

Возраст: 18+ (зрителям, достигшим 18 лет. запрещено для детей)
Рейтинг MPAA: R (лицам до 17 лет обязательно присутствие взрослого)
Дата российской премьеры: 1 февраля 2018
Продолжительность: 01:55:20
Качество видео: BDRip
Перевод: Дублированный, авторский
Субтитры: Русские, английские
Видео: AVC/H.264, 1920x804, ~7840 Kbps
Аудио #1: Русский, AC3, 6 ch, 448 Kbps - Дубляж, (BD EUR)
Аудио #2: Русский, AC3, 6 ch, 448 Kbps - Дмитрий Есарев, (AVO)
Аудио #3: Русский, AC3, 6 ch, 448 Kbps - Михаил Яроцкий, (AVO)

MediaInfo

Аудио #4: Английский, AC3, 6 ch, 448 Kbps
Полное имя : C:\Three.Billboards.Outside.Ebbing.Missouri.2017.BDRip.1080p.HDReactor.mkv
Формат : Matroska
Версия формата : Version 2
Размер файла : 7,76 Гбайт
Продолжительность : 1 ч. 55 м.
Общий поток : 9634 Кбит/сек
Название фильма : ~V ad~
Дата кодирования : UTC 2018-03-06 10:26:13
Программа кодирования : mkvmerge v7.8.0 ('River Man') 32bit built on Apr 3 2015 12:11:22
Библиотека кодирования : libebml v1.3.1 + libmatroska v1.4.2
Обложка : Yes
Attachments : cover.jpg
Видео
Идентификатор : 1
Формат : AVC
Формат/Информация : Advanced Video Codec
Профиль формата : High@L4.1
Настройки формата : CABAC / 5 Ref Frames
Параметр CABAC формата : Да
Параметр RefFrames формата : 5 кадров
Идентификатор кодека : V_MPEG4/ISO/AVC
Продолжительность : 1 ч. 55 м.
Битрейт : 7840 Кбит/сек
Ширина : 1920 пикселей
Высота : 804 пикселя
Соотношение сторон : 2,40:1
Режим частоты кадров : Постоянный
Частота кадров : 23,976 (24000/1001) кадра/сек
Цветовое пространство : YUV
Субдискретизация насыщенности : 4:2:0
Битовая глубина : 8 бит
Тип развёртки : Прогрессивная
Бит/(Пиксели*Кадры) : 0.212
Размер потока : 6,32 Гбайт (81%)
Заголовок : ~V~
Библиотека кодирования : x264 core 152 r2851 ba24899
Настройки кодирования : cabac=1 / ref=5 / deblock=1:-3:-3 / analyse=0x3:0x133 / me=umh / subme=11 / psy=1 / psy_rd=1.10:0.20 / mixed_ref=1 / me_range=40 / chroma_me=1 / trellis=2 / 8x8dct=1 / cqm=0 / deadzone=21,11 / fast_pskip=0 / chroma_qp_offset=-3 / threads=12 / lookahead_threads=1 / sliced_threads=0 / nr=0 / decimate=0 / interlaced=0 / bluray_compat=0 / constrained_intra=0 / bframes=10 / b_pyramid=2 / b_adapt=2 / b_bias=0 / direct=3 / weightb=1 / open_gop=0 / weightp=2 / keyint=240 / keyint_min=23 / scenecut=40 / intra_refresh=0 / rc=2pass / mbtree=0 / bitrate=7840 / ratetol=1.0 / qcomp=0.60 / qpmin=0 / qpmax=69 / qpstep=4 / cplxblur=20.0 / qblur=0.5 / ip_ratio=1.30 / pb_ratio=1.30 / aq=3:0.90
Язык : Английский
Default : Да
Forced : Нет
Аудио #1
Идентификатор : 2
Формат : AC-3
Формат/Информация : Audio Coding 3
Идентификатор кодека : A_AC3
Продолжительность : 1 ч. 55 м.
Вид битрейта : Постоянный
Битрейт : 448 Кбит/сек
Каналы : 6 каналов
Расположение каналов : Front: L C R, Side: L R, LFE
Частота : 48,0 КГц
Частота кадров : 31,250 кадров/сек (1536 SPF)
Битовая глубина : 16 бит
Метод сжатия : С потерями
Размер потока : 370 Мбайт (5%)
Заголовок : Dub[BD CEE]
Язык : Русский
Service Kind : Complete Main
Default : Да
Forced : Нет
Аудио #2
Идентификатор : 3
Формат : AC-3
Формат/Информация : Audio Coding 3
Идентификатор кодека : A_AC3
Продолжительность : 1 ч. 55 м.
Вид битрейта : Постоянный
Битрейт : 448 Кбит/сек
Каналы : 6 каналов
Расположение каналов : Front: L C R, Side: L R, LFE
Частота : 48,0 КГц
Частота кадров : 31,250 кадров/сек (1536 SPF)
Битовая глубина : 16 бит
Метод сжатия : С потерями
Размер потока : 370 Мбайт (5%)
Заголовок : AVO[YESarev] Д.Есарев - ненорматив
Язык : Русский
Service Kind : Complete Main
Default : Нет
Forced : Нет
Аудио #3
Идентификатор : 4
Формат : AC-3
Формат/Информация : Audio Coding 3
Идентификатор кодека : A_AC3
Продолжительность : 1 ч. 55 м.
Вид битрейта : Постоянный
Битрейт : 448 Кбит/сек
Каналы : 6 каналов
Расположение каналов : Front: L C R, Side: L R, LFE
Частота : 48,0 КГц
Частота кадров : 31,250 кадров/сек (1536 SPF)
Битовая глубина : 16 бит
Метод сжатия : С потерями
Размер потока : 370 Мбайт (5%)
Заголовок : AVO[kyberpunk] М.Яроцкий - ненорматив
Язык : Русский
Service Kind : Complete Main
Default : Нет
Forced : Нет
Аудио #4
Идентификатор : 5
Формат : AC-3
Формат/Информация : Audio Coding 3
Идентификатор кодека : A_AC3
Продолжительность : 1 ч. 55 м.
Вид битрейта : Постоянный
Битрейт : 448 Кбит/сек
Каналы : 6 каналов
Расположение каналов : Front: L C R, Side: L R, LFE
Частота : 48,0 КГц
Частота кадров : 31,250 кадров/сек (1536 SPF)
Битовая глубина : 16 бит
Метод сжатия : С потерями
Размер потока : 370 Мбайт (5%)
Язык : Английский
Service Kind : Complete Main
Default : Нет
Forced : Нет
Текст #1
Идентификатор : 6
Формат : UTF-8
Идентификатор кодека : S_TEXT/UTF8
Идентификатор кодека/Информация : UTF-8 Plain Text
Продолжительность : 2 м. 31 с.
Битрейт : 7 бит/сек
ElementCount : 3
Размер потока : 137 байт (0%)
Заголовок : Forced
Язык : Русский
Default : Да
Forced : Нет
Текст #2
Идентификатор : 7
Формат : UTF-8
Идентификатор кодека : S_TEXT/UTF8
Идентификатор кодека/Информация : UTF-8 Plain Text
Продолжительность : 1 ч. 48 м.
Битрейт : 80 бит/сек
ElementCount : 1153
Размер потока : 64,0 Кбайт (0%)
Заголовок : Full
Язык : Русский
Default : Нет
Forced : Нет
Текст #3
Идентификатор : 8
Формат : UTF-8
Идентификатор кодека : S_TEXT/UTF8
Идентификатор кодека/Информация : UTF-8 Plain Text
Продолжительность : 1 ч. 46 м.
Битрейт : 99 бит/сек
ElementCount : 1367
Размер потока : 77,6 Кбайт (0%)
Заголовок : Full - ненорматив
Язык : Русский
Default : Нет
Forced : Нет
Текст #4
Идентификатор : 9
Формат : UTF-8
Идентификатор кодека : S_TEXT/UTF8
Идентификатор кодека/Информация : UTF-8 Plain Text
Продолжительность : 1 ч. 46 м.
Битрейт : 62 бит/сек
ElementCount : 1450
Размер потока : 48,8 Кбайт (0%)
Заголовок : Full
Язык : Английский
Default : Нет
Forced : Нет
Меню
00:00:00.000 : en:Chapter 1
00:05:42.091 : en:Chapter 2
00:08:56.911 : en:Chapter 3
00:12:50.019 : en:Chapter 4
00:19:46.643 : en:Chapter 5
00:23:43.547 : en:Chapter 6
00:27:36.363 : en:Chapter 7
00:31:35.768 : en:Chapter 8
00:35:08.689 : en:Chapter 9
00:40:54.827 : en:Chapter 10
00:44:35.714 : en:Chapter 11
00:49:18.789 : en:Chapter 12
00:55:35.915 : en:Chapter 13
00:59:56.134 : en:Chapter 14
01:04:09.887 : en:Chapter 15
01:10:55.292 : en:Chapter 16
01:15:36.698 : en:Chapter 17
01:23:08.733 : en:Chapter 18
01:27:24.489 : en:Chapter 19
01:35:49.702 : en:Chapter 20
01:40:32.693 : en:Chapter 21
01:44:02.194 : en:Chapter 22
01:46:56.910 : en:Chapter 23
01:49:55.005 : en:Chapter 24

Log x264:

x264 [info]: using SAR=1/1
x264 [info]: using cpu capabilities: MMX2 SSE2Fast SSSE3 SSE4.2 AVX
x264 [info]: profile High, level 4.1
x264 [info]: frame I:1218 Avg QP:14.21 size:223503
x264 [info]: frame P:31116 Avg QP:16.25 size: 88376
x264 [info]: frame B:133600 Avg QP:17.54 size: 28140

x264 [info]: consecutive B-frames: 1.1% 1.0% 3.8% 11.9% 18.0% 47.3% 8.8% 2.3% 1.9% 1.9% 1.9%
x264 [info]: mb I I16..4: 15.0% 72.5% 12.5%
x264 [info]: mb P I16..4: 2.0% 17.8% 1.5% P16..4: 24.8% 33.5% 12.6% 2.9% 0.2% skip: 4.7%
x264 [info]: mb B I16..4: 0.3% 1.2% 0.1% B16..8: 34.5% 21.2% 3.5% direct: 7.7% skip:31.6% L0:46.0% L1:41.0% BI:13.0%
x264 [info]: 8x8 transform intra:80.4% inter:44.5%
x264 [info]: direct mvs spatial:99.0% temporal:1.0%
x264 [info]: coded y,uvDC,uvAC intra: 87.5% 90.9% 78.7% inter: 30.1% 34.2% 12.8%
x264 [info]: i16 v,h,dc,p: 35% 7% 16% 43%
x264 [info]: i8 v,h,dc,ddl,ddr,vr,hd,vl,hu: 11% 9% 17% 9% 10% 10% 10% 11% 12%
x264 [info]: i4 v,h,dc,ddl,ddr,vr,hd,vl,hu: 31% 9% 11% 6% 9% 9% 9% 7% 8%
x264 [info]: i8c dc,h,v,p: 50% 20% 16% 14%
x264 [info]: Weighted P-Frames: Y:7.7% UV:5.4%
x264 [info]: ref P L0: 49.2% 8.4% 22.8% 11.5% 7.7% 0.4% 0.0%
x264 [info]: ref B L0: 73.4% 18.8% 6.2% 1.6%
x264 [info]: ref B L1: 94.0% 6.0%
x264 [info]: kb/s:7839.17
Скриншоты:




Показать сообщения:    

Текущее время: 20-Июн 11:21

Часовой пояс: UTC + 11


Вы не можете начинать темы
Вы не можете отвечать на сообщения
Вы не можете редактировать свои сообщения
Вы не можете удалять свои сообщения
Вы не можете голосовать в опросах
Вы не можете прикреплять файлы к сообщениям
Вы не можете скачивать файлы

Сайт не предоставляет электронные версии произведений, а занимается лишь коллекционированием и каталогизацией ссылок, присылаемых и публикуемых на форуме нашими читателями. Если вы являетесь правообладателем какого-либо представленного материала и не желаете, чтобы ссылка на него находилась в нашем каталоге, свяжитесь с нами, и мы незамедлительно удалим ее. Файлы для обмена на трекере предоставлены пользователями сайта, и администрация не несет ответственности за их содержание. Просьба не заливать файлы, защищенные авторскими правами, а также файлы нелегального содержания!