+100


 

[Цитировать]

- Фигурное катание. Ледовое шоу российских олимпийцев. «Гордость нации» (04.03.2018) HDTVRip [H.264/720p-LQ] -Телекомпания: Первый канал HD
Жанр: ТВ-шоу, Спорт
Режиссер: Илья Авербух.
Участники: Участники Олимпиады в Пхенчхане Алина Загитова, Евгения Медведева, Дмитрий Алиев, Евгения Тарасова и Владимир Морозов, Мария Сотскова, Наталья Забияко и Александр Энберт, Екатерина Боброва и Дмитрий Соловьев. Также свои номера представляют Александра Степанова и Иван Букин, Алексей Ягудин, Татьяна Навка, Роман Костомаров, Аделина Сотникова и другие звезды российского фигурного катания.
Комментаторы: Александр Гришин, Татьяна Анатольевна Тарасова
Описание:
Гала-концерт звезд фигурного катания. Ведущие российские фигуристы представляют показательные номера, олимпийские программы и выступления, которые вошли в историю.
Продолжительность: 01:31:03
Качество видео: HDTVRip
Язык озвучки: Русский
Субтитры: отсутствуют
Видео: AVC/H.264, 1280x720 (16:9), ~4000 Kbps, 50 fps
Аудио #1: AC3, 6 ch, 48 kHz, 384 Kbps
Аудио #2: AAC, 2 ch, 48 kHz, 128 Kbps

MediaInfo

Общее
Уникальный идентификатор : 157206610539280367927435876899769940569 (0x7644E4518C4330EACCA71A1D7B11FA59)
Полное имя : F:\SPORT\Фигурное катание\(04.03.2018)_«Гордость нации». Ледовое шоу российских олимпийцев.mkv
Формат : Matroska
Версия формата : Version 4 / Version 2
Размер файла : 2,69 Гбайт
Продолжительность : 1 ч. 31 м.
Режим общего битрейта : Переменный
Общий поток : 4225 Кбит/сек
Дата кодирования : UTC 2018-03-05 19:51:17
Программа кодирования : mkvmerge v21.0.0 ('Tardigrades Will Inherit The Earth') 32-bit
Библиотека кодирования : libebml v1.3.5 + libmatroska v1.4.8
Видео
Идентификатор : 1
Формат : AVC
Формат/Информация : Advanced Video Codec
Профиль формата : High@L3.2
Настройки формата : CABAC / 4 Ref Frames
Параметр CABAC формата : Да
Параметр RefFrames формата : 4 кадра
Идентификатор кодека : V_MPEG4/ISO/AVC
Продолжительность : 1 ч. 31 м.
Вид битрейта : Переменный
Битрейт : 3708 Кбит/сек
Максимальный битрейт : 4000 Кбит/сек
Ширина : 1280 пикселей
Высота : 720 пикселей
Соотношение сторон : 16:9
Режим частоты кадров : Постоянный
Частота кадров : 50,000 кадров/сек
Стандарт вещания : PAL
Цветовое пространство : YUV
Субдискретизация насыщенности : 4:2:0
Битовая глубина : 8 бит
Тип развёртки : Прогрессивная
Бит/(Пиксели*Кадры) : 0.080
Размер потока : 2,36 Гбайт (88%)
Default : Да
Forced : Нет
Цветовой диапазон : Limited
Основные цвета : BT.709
Характеристики трансфера : BT.709
Коэффициенты матрицы : BT.709
Аудио #1
Идентификатор : 2
Формат : AC-3
Формат/Информация : Audio Coding 3
Идентификатор кодека : A_AC3
Продолжительность : 1 ч. 31 м.
Вид битрейта : Постоянный
Битрейт : 384 Кбит/сек
Каналы : 6 каналов
Расположение каналов : Front: L C R, Side: L R, LFE
Частота : 48,0 КГц
Частота кадров : 31,250 кадров/сек (1536 SPF)
Битовая глубина : 16 бит
Метод сжатия : С потерями
Задержка видео : -200 мс.
Размер потока : 250 Мбайт (9%)
Язык : Russian
ServiceKind/String : Complete Main
Default : Да
Forced : Нет
Аудио #2
Идентификатор : 3
Формат : AAC
Формат/Информация : Advanced Audio Codec
Профиль формата : LC
Идентификатор кодека : A_AAC-2
Продолжительность : 1 ч. 31 м.
Битрейт : 128 Кбит/сек
Каналы : 2 канала
Расположение каналов : Front: L R
Частота : 48,0 КГц
Частота кадров : 46,875 кадров/сек (1024 SPF)
Метод сжатия : С потерями
Размер потока : 83,3 Мбайт (3%)
Язык : Russian
Default : Нет
Forced : Нет
Скриншоты:




Показать сообщения:    

Текущее время: 23-Июн 13:32

Часовой пояс: UTC + 11


Вы не можете начинать темы
Вы не можете отвечать на сообщения
Вы не можете редактировать свои сообщения
Вы не можете удалять свои сообщения
Вы не можете голосовать в опросах
Вы не можете прикреплять файлы к сообщениям
Вы не можете скачивать файлы

Сайт не предоставляет электронные версии произведений, а занимается лишь коллекционированием и каталогизацией ссылок, присылаемых и публикуемых на форуме нашими читателями. Если вы являетесь правообладателем какого-либо представленного материала и не желаете, чтобы ссылка на него находилась в нашем каталоге, свяжитесь с нами, и мы незамедлительно удалим ее. Файлы для обмена на трекере предоставлены пользователями сайта, и администрация не несет ответственности за их содержание. Просьба не заливать файлы, защищенные авторскими правами, а также файлы нелегального содержания!