+100


Топ за 24 часа
 
 

[Цитировать]

-Изгнание (2007) BDRip [H.264/1080p]«If you want to kill, kill. If you want to forgive, forgive»-Производство: Россия / Рен-ТВ
Жанр: драма
Режиссер: Андрей Звягинцев
Продюсер: Дмитрий Лесневский, Энтони Рей, Елена Логинова
Актеры: Константин Лавроненко, Мария Бонневи, Александр Балуев, Максим Шибаев, Екатерина Кулкина, Елена Лядова, Андрей Шибаршин, Дмитрий Ульянов, Алексей Вертков и др.
Описание:
«Изгнание». Назвав так свой второй фильм, режиссер Андрей Звягинцев вновь выбрал объектом творческого изучения одно из самых интересных и сложных, хотя и самое очевидное и характерное из людских состояний — семью. Но если в «Возвращении» внимание режиссера и зрителя было сосредоточено на отце и сыновьях, то в «Изгнании» протагонистами являются муж и жена, мужчина и женщина.
Драматизм человеческой ситуации. Природа любви. Измена. Необходимость выбора. Непонимание. Смерть. Озарение… Все эти общие слова, обретая форму конкретного действия, материализуясь в героях и обстоятельствах, становятся пронзительными фактами существования — как на уровне быта, так и на уровне бытия.

Возраст: 16+ (зрителям, достигшим 16 лет)
Релиз от: MediaClub
Продолжительность: 02:37:32
Качество: BDRip 1080p
Перевод: Не требуется (Русский, Лицензия)
Субтитры: Отсутствуют
Видео: AVC/H.264, 1920x816, (2.35:1), 14.3 Mbps, 23.976 fps
Аудио: AC3, 6 ch, 640 kbps - Русский
Аудио: DTS, 6 ch, 1509 kbps - Русский

MediaInfo

---[Information] [03.04.2017 23:13:46] x264 [info]: frame I:40 Avg QP:15.42 size:309737
---[Information] [03.04.2017 23:13:46] x264 [info]: frame P:403 Avg QP:17.31 size:126358
---[Information] [03.04.2017 23:13:46] x264 [info]: frame B:2107 Avg QP:18.23 size: 60266
General
Unique ID : 171580156054546767369867831916646868849 (0x811522D39208133E8214C21356FFA771)
Complete name : Izgnanie.2007.BDRip.1080p.MediaClub.mkv
Format : Matroska
Format version : Version 4 / Version 2
File size : 18.1 GiB
Duration : 2 h 37 min
Overall bit rate : 16.5 Mb/s
Encoded date : UTC 2017-04-05 06:48:39 / UTC 2017-04-01T08:46:30Z
Writing application : mkvmerge v10.0.0 ('To Drown In You') 64bit
Writing library : libebml v1.3.4 + libmatroska v1.4.5 / Lavf57.7.2
Video
ID : 1
Format : AVC
Format/Info : Advanced Video Codec
Format profile : High@L4.1
Format settings : CABAC / 5 Ref Frames
Format settings, CABAC : Yes
Format settings, ReFrames : 5 frames
Codec ID : V_MPEG4/ISO/AVC
Duration : 2 h 37 min
Bit rate : 14.3 Mb/s
Width : 1 920 pixels
Height : 816 pixels
Display aspect ratio : 2.35:1
Frame rate mode : Constant
Frame rate : 23.976 (24000/1001) FPS
Color space : YUV
Chroma subsampling : 4:2:0
Bit depth : 8 bits
Scan type : Progressive
Bits/(Pixel*Frame) : 0.381
Stream size : 15.4 GiB (85%)
Title : BDRip by Silverok
Writing library : x264 core 148 r2708 86b7198
Encoding settings : cabac=1 / ref=5 / deblock=1:-3:-3 / analyse=0x3:0x113 / me=umh / subme=11 / psy=1 / psy_rd=1.00:0.10 / mixed_ref=1 / me_range=48 / chroma_me=1 / trellis=2 / 8x8dct=1 / cqm=0 / deadzone=21,11 / fast_pskip=1 / chroma_qp_offset=-3 / threads=12 / lookahead_threads=1 / sliced_threads=0 / nr=0 / decimate=0 / interlaced=0 / bluray_compat=0 / constrained_intra=0 / bframes=16 / b_pyramid=2 / b_adapt=1 / b_bias=0 / direct=1 / weightb=1 / open_gop=0 / weightp=2 / keyint=240 / keyint_min=24 / scenecut=40 / intra_refresh=0 / rc_lookahead=40 / rc=2pass / mbtree=1 / bitrate=14315 / ratetol=1.0 / qcomp=0.60 / qpmin=0 / qpmax=69 / qpstep=4 / cplxblur=20.0 / qblur=0.5 / vbv_maxrate=62500 / vbv_bufsize=78125 / nal_hrd=none / filler=0 / ip_ratio=1.40 / aq=1:1.00
Default : Yes
Forced : No
Color range : Limited
Color primaries : BT.709
Transfer characteristics : BT.709
Matrix coefficients : BT.709
Statistics Tags Issue : mkvmerge v10.0.0 ('To Drown In You') 64bit 2017-04-05 06:48:39 / mkvmerge v10.0.0 ('To Drown In You') 64bit 2017-04-05 06:48:39 / UTC 2017-04-01T08:46:30Z
FromStats_BitRate : 14310917
FromStats_Duration : 02:37:32.026000000
FromStats_FrameCount : 226618
FromStats_StreamSize : 16908395635
Audio #1
ID : 2
Format : AC-3
Format/Info : Audio Coding 3
Codec ID : A_AC3
Duration : 2 h 37 min
Bit rate mode : Constant
Bit rate : 640 kb/s
Channel(s) : 6 channels
Channel positions : Front: L C R, Side: L R, LFE
Sampling rate : 48.0 kHz
Frame rate : 31.250 FPS (1536 SPF)
Bit depth : 16 bits
Compression mode : Lossy
Delay relative to video : -5 ms
Stream size : 721 MiB (4%)
Language : Russian
Service kind : Complete Main
Default : No
Forced : No
Statistics Tags Issue : mkvmerge v10.0.0 ('To Drown In You') 64bit 2017-04-05 06:48:39 / mkvmerge v10.0.0 ('To Drown In You') 64bit 2017-04-05 06:48:39 / UTC 2017-04-01T08:46:30Z
FromStats_BitRate : 640000
FromStats_Duration : 02:37:32.000000000
FromStats_FrameCount : 295375
FromStats_StreamSize : 756160000
Audio #2
ID : 3
Format : DTS
Format/Info : Digital Theater Systems
Codec ID : A_DTS
Duration : 2 h 37 min
Bit rate mode : Constant
Bit rate : 1 510 kb/s
Channel(s) : 6 channels
Channel positions : Front: L C R, Side: L R, LFE
Sampling rate : 48.0 kHz
Frame rate : 93.750 FPS (512 SPF)
Bit depth : 24 bits
Compression mode : Lossy
Delay relative to video : -5 ms
Stream size : 1.66 GiB (9%)
Language : Russian
Default : No
Forced : No
Statistics Tags Issue : mkvmerge v10.0.0 ('To Drown In You') 64bit 2017-04-05 06:48:39 / mkvmerge v10.0.0 ('To Drown In You') 64bit 2017-04-05 06:48:39 / UTC 2017-04-01T08:46:30Z
FromStats_BitRate : 1509750
FromStats_Duration : 02:37:32.000000000
FromStats_FrameCount : 886125
FromStats_StreamSize : 1783769625
Menu
00:00:00.000 : :Chapter 1
00:10:19.994 : :Chapter 2
00:18:30.818 : :Chapter 3
00:31:34.601 : :Chapter 4
00:40:28.134 : :Chapter 5
00:47:29.805 : :Chapter 6
00:58:50.902 : :Chapter 7
01:09:05.475 : :Chapter 8
01:17:27.101 : :Chapter 9
01:30:05.734 : :Chapter 10
01:38:54.470 : :Chapter 11
01:50:17.152 : :Chapter 12
01:59:09.601 : :Chapter 13
02:12:10.589 : :Chapter 14
02:25:31.890 : :Chapter 15
02:37:30.399 : :Chapter 16
Скриншоты:




Показать сообщения:    

Текущее время: 20-Июн 11:21

Часовой пояс: UTC + 11


Вы не можете начинать темы
Вы не можете отвечать на сообщения
Вы не можете редактировать свои сообщения
Вы не можете удалять свои сообщения
Вы не можете голосовать в опросах
Вы не можете прикреплять файлы к сообщениям
Вы не можете скачивать файлы

Сайт не предоставляет электронные версии произведений, а занимается лишь коллекционированием и каталогизацией ссылок, присылаемых и публикуемых на форуме нашими читателями. Если вы являетесь правообладателем какого-либо представленного материала и не желаете, чтобы ссылка на него находилась в нашем каталоге, свяжитесь с нами, и мы незамедлительно удалим ее. Файлы для обмена на трекере предоставлены пользователями сайта, и администрация не несет ответственности за их содержание. Просьба не заливать файлы, защищенные авторскими правами, а также файлы нелегального содержания!