+100


Топ за 24 часа
 
 

[Цитировать]

- Норвег (2015) HDTVRip -Производство: Россия | Марс Медиа Энтертейнмент
Жанр: Комедия
Режиссер: Алена Званцова
Актеры: Евгений Миронов, Северия Янушаускайте, Дмитрий Марьянов, Ксения Раппопорт, Роза Хаируллина, Ян Гэ, Сабина Ахмедова, Ольга Мукукенова, Мээрикан Мирзалиева, Ализа Абдиева
Описание:
Как снег на голову москвича Кириллова сваливается руководство клининговым агентством «Настенька», состоящим целиком из мигранток-азиаток. Ситуация осложняется тем, что Кириллов планирует уехать в Норвегию и ждет в гости невесту — типичную европейку с весьма жесткими понятиями о свободе и толерантности. Мысль о том, что она узнает об эксплуатации «женщин Востока» приводит его в ужас и заставляет всячески изворачиваться, скрывая «гарем»…

Возраст: 12+ (зрителям, достигшим 12 лет)
Дата российской премьеры: 17 декабря 2015
Дата мировой премьеры: 5 ноября 2015
Продолжительность: 01:46:29
Качество видео: HDTVRip
Видео: AVC/H.264, 1024x560 (1.85:1), ~1767 kbps, 25.00 fps
Аудио: AC3, 2 ch, 192 kbps CBR, 48.0 kHz

MediaInfo

General
Unique ID : 194032417199188172003601316371526133851 (0x91F948C462311834B85ED6E7301D285B)
Complete name : D:\Norveg_2015_HDTVRip_AVC.mkv
Format : Matroska
Format version : Version 2
File size : 1.46 GiB
Duration : 1 h 46 min
Overall bit rate : 1 961 kb/s
Encoded date : UTC 2018-03-05 02:07:41
Writing application : mkvmerge v7.8.0 ('River Man') 32bit built on Apr 3 2015 12:11:22
Writing library : libebml v1.3.1 + libmatroska v1.4.2
Video
ID : 1
Format : AVC
Format/Info : Advanced Video Codec
Format profile : High@L4.1
Format settings, CABAC : Yes
Format settings, ReFrames : 9 frames
Codec ID : V_MPEG4/ISO/AVC
Duration : 1 h 46 min
Bit rate : 1 767 kb/s
Width : 1 024 pixels
Height : 560 pixels
Display aspect ratio : 1.85:1
Frame rate mode : Constant
Frame rate : 25.000 FPS
Color space : YUV
Chroma subsampling : 4:2:0
Bit depth : 8 bits
Scan type : Progressive
Bits/(Pixel*Frame) : 0.123
Stream size : 1.29 GiB (88%)
Writing library : x264 core 146 r2538 121396c
Encoding settings : cabac=1 / ref=9 / deblock=1:-2:-1 / analyse=0x3:0x133 / me=umh / subme=9 / psy=1 / psy_rd=1.00:0.15 / mixed_ref=1 / me_range=32 / chroma_me=1 / trellis=2 / 8x8dct=1 / cqm=0 / deadzone=21,11 / fast_pskip=0 / chroma_qp_offset=-3 / threads=18 / lookahead_threads=3 / sliced_threads=0 / nr=0 / decimate=1 / interlaced=0 / bluray_compat=0 / constrained_intra=0 / bframes=9 / b_pyramid=2 / b_adapt=2 / b_bias=0 / direct=1 / weightb=1 / open_gop=0 / weightp=2 / keyint=250 / keyint_min=25 / scenecut=40 / intra_refresh=0 / rc=2pass / mbtree=0 / bitrate=1767 / ratetol=1.0 / qcomp=0.60 / qpmin=0 / qpmax=69 / qpstep=4 / cplxblur=20.0 / qblur=0.5 / ip_ratio=1.40 / pb_ratio=1.30 / aq=2:1.00
Default : Yes
Forced : No
Color range : Limited
Color primaries : BT.709
Transfer characteristics : BT.709
Matrix coefficients : BT.709
Audio
ID : 2
Format : AC-3
Format/Info : Audio Coding 3
Format settings, Endianness : Big
Codec ID : A_AC3
Duration : 1 h 46 min
Bit rate mode : Constant
Bit rate : 192 kb/s
Channel(s) : 2 channels
Channel positions : Front: L R
Sampling rate : 48.0 kHz
Frame rate : 31.250 FPS (1536 spf)
Bit depth : 16 bits
Compression mode : Lossy
Stream size : 146 MiB (10%)
Service kind : Complete Main
Default : Yes
Forced : No
Скриншоты:




Показать сообщения:    

Текущее время: 24-Июн 04:49

Часовой пояс: UTC + 11


Вы не можете начинать темы
Вы не можете отвечать на сообщения
Вы не можете редактировать свои сообщения
Вы не можете удалять свои сообщения
Вы не можете голосовать в опросах
Вы не можете прикреплять файлы к сообщениям
Вы не можете скачивать файлы

Сайт не предоставляет электронные версии произведений, а занимается лишь коллекционированием и каталогизацией ссылок, присылаемых и публикуемых на форуме нашими читателями. Если вы являетесь правообладателем какого-либо представленного материала и не желаете, чтобы ссылка на него находилась в нашем каталоге, свяжитесь с нами, и мы незамедлительно удалим ее. Файлы для обмена на трекере предоставлены пользователями сайта, и администрация не несет ответственности за их содержание. Просьба не заливать файлы, защищенные авторскими правами, а также файлы нелегального содержания!