+100


Топ за 24 часа
 
 

[Цитировать]

-Детройт / Detroit (2017) BDRip-Производство: США / Annapurna Pictures, First Light Production, Page 1
Жанр: Триллер, драма, криминал, история
Режиссер: Кэтрин Бигелоу
Актеры: Джон Бойега, Уилл Поултер, Элджи Смит, Джейкоб Латимор, Джейсон Митчелл, Ханна Мюррэй, Джек Рейнор, Кейтлин Дивер, Бен О Тул, Джон Красински
Описание:
Сюжет расскажет о реальном историческом событии, поводом для которого стал полицейский рейд в Детройте в июле 1967 года. Рейд привел к одному из самых больших восстаний на территории Соединенных Штатов, в результате которого десятки тысяч разъяренных жителей вышли из-под контроля властей, а город захлестнула волна крови, насилия и налетов. Последствием разрушительных беспорядков стала гибель 43 человек.

Возраст: 16+ (зрителям, достигшим 16 лет)
Дата мировой премьеры: 25 июля 2017
Продолжительность: 02:23:00
Качество видео: BD Rip
Перевод: Многоголосый закадровый, любительский
Субтитры: Отсутствуют
Видео: MPEG4, XviD, 720x400, 1782 Kbps
Аудио #1: AC-3, 48.0 KHz, 2 ch, 192 Kbps | Русский
Аудио #2: AC-3, 48.0 KHz, 6 ch, 640 Kbps | Английский

MediaInfo

Общее
Полное имя : E:\NNM\Детройт\Detroit 2017 BDRip.avi
Формат : AVI
Формат/Информация : Audio Video Interleave
Профиль формата : OpenDML
Размер файла : 2,63 Гбайт
Продолжительность : 2 ч. 23 м.
Общий поток : 2631 Кбит/сек
Программа кодирования : VirtualDubMod 1.5.10.3 | (build 2550/release)
Библиотека кодирования : VirtualDubMod build 2550/release
Видео
Идентификатор : 0
Формат : MPEG-4 Visual
Профиль формата : Advanced Simple@L5
Настройки формата : BVOP1
Параметр BVOP формата : 1
Параметр QPel формата : Нет
Параметр GMC формата : Без точки перехода
Параметр матрицы формата : Default (H.263)
Идентификатор кодека : XVID
Идентификатор кодека/Подсказка : XviD
Продолжительность : 2 ч. 23 м.
Битрейт : 1782 Кбит/сек
Ширина : 720 пикселей
Высота : 400 пикселей
Соотношение сторон : 16:9
Частота кадров : 23,976 (24000/1001) кадра/сек
Цветовое пространство : YUV
Субдискретизация насыщенности : 4:2:0
Битовая глубина : 8 бит
Тип развёртки : Прогрессивная
Метод сжатия : С потерями
Бит/(Пиксели*Кадры) : 0.258
Размер потока : 1,78 Гбайт (68%)
Библиотека кодирования : XviD 1.2.1 (UTC 2008-12-04)
Аудио #1
Идентификатор : 1
Формат : AC-3
Формат/Информация : Audio Coding 3
Идентификатор кодека : 2000
Продолжительность : 2 ч. 23 м.
Вид битрейта : Постоянный
Битрейт : 192 Кбит/сек
Каналы : 2 канала
Расположение каналов : Front: L R
Частота : 48,0 КГц
Частота кадров : 31,250 кадров/сек (1536 SPF)
Битовая глубина : 16 бит
Метод сжатия : С потерями
Размер потока : 196 Мбайт (7%)
Выравнивание : Разделение по промежуткам
Продолжительность промежутка : 42 мс. (1,00 видеокадр)
Время предзагрузки промежутка : 500 мс.
ServiceKind/String : Complete Main
Аудио #2
Идентификатор : 2
Формат : AC-3
Формат/Информация : Audio Coding 3
Идентификатор кодека : 2000
Продолжительность : 2 ч. 23 м.
Вид битрейта : Постоянный
Битрейт : 640 Кбит/сек
Каналы : 6 каналов
Расположение каналов : Front: L C R, Side: L R, LFE
Частота : 48,0 КГц
Частота кадров : 31,250 кадров/сек (1536 SPF)
Битовая глубина : 16 бит
Метод сжатия : С потерями
Размер потока : 655 Мбайт (24%)
Выравнивание : Разделение по промежуткам
Продолжительность промежутка : 42 мс. (1,00 видеокадр)
Время предзагрузки промежутка : 500 мс.
ServiceKind/String : Complete Main
Скриншоты:




Показать сообщения:    

Текущее время: 19-Июн 08:26

Часовой пояс: UTC + 11


Вы не можете начинать темы
Вы не можете отвечать на сообщения
Вы не можете редактировать свои сообщения
Вы не можете удалять свои сообщения
Вы не можете голосовать в опросах
Вы не можете прикреплять файлы к сообщениям
Вы не можете скачивать файлы

Сайт не предоставляет электронные версии произведений, а занимается лишь коллекционированием и каталогизацией ссылок, присылаемых и публикуемых на форуме нашими читателями. Если вы являетесь правообладателем какого-либо представленного материала и не желаете, чтобы ссылка на него находилась в нашем каталоге, свяжитесь с нами, и мы незамедлительно удалим ее. Файлы для обмена на трекере предоставлены пользователями сайта, и администрация не несет ответственности за их содержание. Просьба не заливать файлы, защищенные авторскими правами, а также файлы нелегального содержания!