+100


Топ за 24 часа
 
 

[Цитировать]

- Вольная грамота (2018) WEBRip (сезон 1, серии 1-18 из 18) -Производство: Россия / Кинокомпнаия «Щука-фильм»
Жанр: история, мелодрама
Режиссер: Дмитрий Черкасов
Актеры: Татьяна Бабенкова, Артём Крылов, Владислав Абашин, Иван Добронравов, Ксения Разина, Артём Ткаченко, Владислав Ветров, Катарина Шпиринг, Иван Шибанов, Анна Лутцева и др.
Описание:
Полина Лебедева, воспитанница бездетного князя Алексея Петровича Головина - самая завидная невеста Ямбургского уезда. Во время бала в честь её именин Алексей Петрович умирает от внезапного сердечного приступа. Это горе – лишь начало тяжёлых испытаний, уготованных девушке судьбой...

Возраст: 16+ (зрителям, достигшим 16 лет)
Дата российской премьеры: 19 февраля 2018, Первый канал
Продолжительность: ~00:52:00 серия
Качество видео: WEBRip
Видео: Xvid, 720x400 (16:9), ~1242 Kbps
Аудио: AC3, 2 ch, 192 kbps

MediaInfo

Общее
Полное имя : D:\Мои фильмы\Vol'naja_gramota_1-18iz18_2018_XviD_WEBRip\Vol'naja_gramota_01.avi
Формат : AVI
Формат/Информация : Audio Video Interleave
Размер файла : 557 Мбайт
Продолжительность : 53 м. 55 с.
Общий поток : 1444 Кбит/сек
Программа кодирования : VirtualDubMod 1.5.10.3 (build 2550/release)
Библиотека кодирования : VirtualDub build 40716/release
Видео
Идентификатор : 0
Формат : MPEG-4 Visual
Профиль формата : Advanced Simple@L5
Параметр BVOP формата : 2
Параметр QPel формата : Нет
Параметр GMC формата : Без точки перехода
Параметр матрицы формата : Default (H.263)
Идентификатор кодека : XVID
Идентификатор кодека/Подсказка : XviD
Продолжительность : 53 м. 55 с.
Битрейт : 1242 Кбит/сек
Ширина : 720 пикселей
Высота : 400 пикселей
Соотношение сторон : 16:9
Частота кадров : 25,000 кадров/сек
Цветовое пространство : YUV
Субдискретизация насыщенности : 4:2:0
Битовая глубина : 8 бит
Тип развёртки : Прогрессивная
Метод сжатия : С потерями
Бит/(Пиксели*Кадры) : 0.173
Размер потока : 479 Мбайт (86%)
Библиотека кодирования : XviD 67
Аудио
Идентификатор : 1
Формат : AC-3
Формат/Информация : Audio Coding 3
Параметр Endianness формата : Big
Идентификатор кодека : 2000
Продолжительность : 53 м. 55 с.
Вид битрейта : Постоянный
Битрейт : 192 Кбит/сек
Каналы : 2 канала
Расположение каналов : Front: L R
Частота : 48,0 КГц
Частота кадров : 31,250 кадров/сек (1536 SPF)
Битовая глубина : 16 бит
Метод сжатия : С потерями
Размер потока : 74,0 Мбайт (13%)
Выравнивание : Соединение по промежуткам
Продолжительность промежутка : 40 мс. (1,00 видеокадр)
Время предзагрузки промежутка : 512 мс.
ServiceKind/String : Complete Main
Скриншоты:




Показать сообщения:    

Текущее время: 20-Июн 11:21

Часовой пояс: UTC + 11


Вы не можете начинать темы
Вы не можете отвечать на сообщения
Вы не можете редактировать свои сообщения
Вы не можете удалять свои сообщения
Вы не можете голосовать в опросах
Вы не можете прикреплять файлы к сообщениям
Вы не можете скачивать файлы

Сайт не предоставляет электронные версии произведений, а занимается лишь коллекционированием и каталогизацией ссылок, присылаемых и публикуемых на форуме нашими читателями. Если вы являетесь правообладателем какого-либо представленного материала и не желаете, чтобы ссылка на него находилась в нашем каталоге, свяжитесь с нами, и мы незамедлительно удалим ее. Файлы для обмена на трекере предоставлены пользователями сайта, и администрация не несет ответственности за их содержание. Просьба не заливать файлы, защищенные авторскими правами, а также файлы нелегального содержания!