+100


 

[Цитировать]

- Comedy Баттл. Новый сезон / Комеди Клаб / Comedy Club (2018.03.02) -Телекомпания: ТНТ
Жанр: Юмор
Ведущий: Павел Воля
Описание:
В новом сезоне создатели решили столкнуть лбами представителей двух жанров: стендапа и миниатюры. Победитель сезона получит 5 миллионов рублей. В последнее время на ТНТ приходили в основном стендап-комики. И когда, казалось бы, стендап навсегда вытеснил жанр миниатюры, на ТНТ снова возвращается "Comedy Баттл", с тем, чтобы доказать обратное.
Продолжительность: ~00:47:00
Качество видео: SATRip
Субтитры: Отсутствуют
Видео: Xvid, 720x400 (16:9), ~1800 Kbps
Аудио: MP3, 2 ch, 128 Kbps

MediaInfo

Общее
Полное имя : D:\Comedy.Battl.New.Season.(06).avi
Формат : AVI
Формат/Информация : Audio Video Interleave
Размер файла : 647 Мбайт
Продолжительность : 46 м. 41 с.
Общий поток : 1937 Кбит/сек
Программа кодирования : VirtualDubMod 1.5.10.3 |(build 2550/release)
Библиотека кодирования : VirtualDubMod build 2550/release
Видео
Идентификатор : 0
Формат : MPEG-4 Visual
Профиль формата : Advanced Simple@L5
Настройки формата : BVOP2
Параметр BVOP формата : 2
Параметр QPel формата : Нет
Параметр GMC формата : Без точки перехода
Параметр матрицы формата : Default (H.263)
Идентификатор кодека : XVID
Идентификатор кодека/Подсказка : XviD
Продолжительность : 46 м. 41 с.
Битрейт : 1800 Кбит/сек
Ширина : 720 пикселей
Высота : 400 пикселей
Соотношение сторон : 16:9
Частота кадров : 25,000 кадров/сек
Цветовое пространство : YUV
Субдискретизация насыщенности : 4:2:0
Битовая глубина : 8 бит
Тип развёртки : Прогрессивная
Метод сжатия : С потерями
Бит/(Пиксели*Кадры) : 0.250
Размер потока : 601 Мбайт (93%)
Библиотека кодирования : XviD 1.2.1 (UTC 2008-12-04)
Аудио
Идентификатор : 1
Формат : MPEG Audio
Версия формата : Version 1
Профиль формата : Layer 3
Настройки формата : Joint stereo / MS Stereo
Идентификатор кодека : 55
Идентификатор кодека/Подсказка : MP3
Продолжительность : 46 м. 41 с.
Вид битрейта : Постоянный
Битрейт : 128 Кбит/сек
Каналы : 2 канала
Частота : 48,0 КГц
Частота кадров : 41,667 кадра/сек (1152 SPF)
Метод сжатия : С потерями
Размер потока : 42,8 Мбайт (7%)
Выравнивание : Соединение по промежуткам
Продолжительность промежутка : 40 мс. (1,00 видеокадр)
Время предзагрузки промежутка : 504 мс.
Библиотека кодирования : LAME3.99r
Настройки программы : -m j -V 4 -q 9 -lowpass 17 -b 128
Скриншоты:




Показать сообщения:    

Текущее время: 24-Июн 04:50

Часовой пояс: UTC + 11


Вы не можете начинать темы
Вы не можете отвечать на сообщения
Вы не можете редактировать свои сообщения
Вы не можете удалять свои сообщения
Вы не можете голосовать в опросах
Вы не можете прикреплять файлы к сообщениям
Вы не можете скачивать файлы

Сайт не предоставляет электронные версии произведений, а занимается лишь коллекционированием и каталогизацией ссылок, присылаемых и публикуемых на форуме нашими читателями. Если вы являетесь правообладателем какого-либо представленного материала и не желаете, чтобы ссылка на него находилась в нашем каталоге, свяжитесь с нами, и мы незамедлительно удалим ее. Файлы для обмена на трекере предоставлены пользователями сайта, и администрация не несет ответственности за их содержание. Просьба не заливать файлы, защищенные авторскими правами, а также файлы нелегального содержания!