+100


 

[Цитировать]

- Пресс-конференция Владимира Путина с Федеральным канцлером Австрии Себастианом Курцем (28.02.2018) WEBRip -Производство: Президент.РФ
Жанр: Политика
Описание:
По итогам российско-австрийских переговоров Владимир Путин и Себастиан Курц сделали заявления и ответили на вопросы журналистов об украинском кризисе, о санкциях, сирийский вопрос и российско-австрийском сотрудничестве.
Продолжительность: 00:29:20
Качество видео: WEBRip
Видео: AVC/H.264, 1280x720 (16:9), ~3014 Kbps
Аудио: AAC, 2 ch, 128 Kbps

MediaInfo

General
Unique ID : 265155089220800789838456828386524045648 (0xC77B033B4E8EB3F3ECF0B5E91A8CA150)
Complete name : D:\Film\Пресс-конференция Владимира Путина с Федеральным канцлером Австрии Себастианом Курцем.mkv
Format : Matroska
Format version : Version 4 / Version 2
File size : 661 MiB
Duration : 29 min 20 s
Overall bit rate : 3 148 kb/s
Encoded date : UTC 2018-02-28 21:21:53
Writing application : mkvmerge v21.0.0 ('Tardigrades Will Inherit The Earth') 64-bit
Writing library : libebml v1.3.5 + libmatroska v1.4.8
Cover : Yes
Attachments : cover.png
Video
ID : 1
Format : AVC
Format/Info : Advanced Video Codec
Format profile : Main@L3.1
Format settings : 2 Ref Frames
Format settings, CABAC : No
Format settings, RefFrames : 2 frames
Codec ID : V_MPEG4/ISO/AVC
Duration : 29 min 20 s
Bit rate : 3 014 kb/s
Width : 1 280 pixels
Height : 720 pixels
Display aspect ratio : 16:9
Frame rate mode : Constant
Frame rate : 25.000 FPS
Color space : YUV
Chroma subsampling : 4:2:0
Bit depth : 8 bits
Scan type : Progressive
Bits/(Pixel*Frame) : 0.131
Stream size : 632 MiB (96%)
Language : Russian
Default : Yes
Forced : No
Color range : Limited
Audio
ID : 2
Format : AAC
Format/Info : Advanced Audio Codec
Format profile : LC
Codec ID : A_AAC-2
Duration : 29 min 20 s
Bit rate : 128 kb/s
Channel(s) : 2 channels
Channel positions : Front: L R
Sampling rate : 48.0 kHz
Frame rate : 46.875 FPS (1024 SPF)
Compression mode : Lossy
Delay relative to video : -40 ms
Stream size : 26.9 MiB (4%)
Language : Russian
Default : Yes
Forced : No
Скриншоты:




Показать сообщения:    

Текущее время: 19-Июн 08:26

Часовой пояс: UTC + 11


Вы не можете начинать темы
Вы не можете отвечать на сообщения
Вы не можете редактировать свои сообщения
Вы не можете удалять свои сообщения
Вы не можете голосовать в опросах
Вы не можете прикреплять файлы к сообщениям
Вы не можете скачивать файлы

Сайт не предоставляет электронные версии произведений, а занимается лишь коллекционированием и каталогизацией ссылок, присылаемых и публикуемых на форуме нашими читателями. Если вы являетесь правообладателем какого-либо представленного материала и не желаете, чтобы ссылка на него находилась в нашем каталоге, свяжитесь с нами, и мы незамедлительно удалим ее. Файлы для обмена на трекере предоставлены пользователями сайта, и администрация не несет ответственности за их содержание. Просьба не заливать файлы, защищенные авторскими правами, а также файлы нелегального содержания!