+100


Топ за 24 часа
 
 

[Цитировать]

-Друзья друзей- Год выпуска: 2013 г.
Производство: Россия
Жанр: комедия
Продолжительность: 01:30:27
Перевод: Не требуется
Режиссер: Артем Аксененко, Араик Оганесян
В ролях: Нюша Шурочкина, Гарик Харламов, Юрий Стоянов, Николай Наумов, Александр Ильин мл., Тимур Батрутдинов, Александр Молочников, Андрей Гайдулян, Олег Верещагин, Александр Булатов
Описание: В канун Нового года пересекаются истории промоутера, впервые оставшегося дома с пятилетним ребенком, трех музыкантов из филармонии, решившихся на ограбление сурового бизнесмена, на домашнюю вечеринку к которому их отправил тот самый промоутер, и бедного студента, пригласившего на первое свидание в дорогой ресторан дочку того самого сурового бизнесмена. В результате, каждый из героев попадет в нелепые, пикантные, опасные, но все равно очень смешные ситуации, выбраться из которых им, конечно, помогут, друзья… Качество видео: BDRip-AVC
Контейнер: MKV
Видео кодек: H.264
Аудио кодек: AC3
Видео: MPEG4 Video (H264) 1008x544 24fps 1837 Kbps
Аудио: Dolby AC3 48000Hz 6ch 448 Kbps

Media Info / x.264

Log 2-nd pass

x264 [info]: using SAR=1/1
x264 [info]: using cpu capabilities: MMX2 SSE2Fast SSSE3 Cache64 SlowShuffle
x264 [info]: profile High, level 4.1
x264 [info]: frame I:1343 Avg QP:17.06 size: 72727
x264 [info]: frame P:29971 Avg QP:20.02 size: 20430
x264 [info]: frame B:98940 Avg QP:23.60 size: 5399
x264 [info]: consecutive B-frames: 2.6% 3.2% 8.7% 25.5% 20.0% 35.2% 4.8%
x264 [info]: mb I I16..4: 11.5% 66.1% 22.4%
x264 [info]: mb P I16..4: 3.0% 10.1% 1.7% P16..4: 44.6% 16.9% 14.8% 0.7% 0.3% skip: 7.9%
x264 [info]: mb B I16..4: 0.4% 1.1% 0.2% B16..8: 36.3% 7.6% 2.2% direct: 4.1% skip:48.0% L0:44.2% L1:45.8% BI:10.0%
x264 [info]: 8x8 transform intra:66.8% inter:67.3%
x264 [info]: direct mvs spatial:96.4% temporal:3.6%
x264 [info]: coded y,uvDC,uvAC intra: 66.5% 81.8% 53.9% inter: 15.4% 21.0% 5.6%
x264 [info]: i16 v,h,dc,p: 32% 17% 8% 43%
x264 [info]: i8 v,h,dc,ddl,ddr,vr,hd,vl,hu: 13% 9% 7% 9% 13% 14% 12% 12% 12%
x264 [info]: i4 v,h,dc,ddl,ddr,vr,hd,vl,hu: 12% 7% 4% 9% 15% 15% 13% 12% 13%
x264 [info]: i8c dc,h,v,p: 36% 22% 22% 20%
x264 [info]: Weighted P-Frames: Y:4.1% UV:3.1%
x264 [info]: ref P L0: 49.6% 12.3% 16.6% 7.0% 5.5% 4.5% 4.0% 0.4% 0.0%
x264 [info]: ref B L0: 75.9% 11.6% 6.6% 3.4% 1.8% 0.7%
x264 [info]: ref B L1: 91.8% 8.2%
x264 [info]: kb/s:1833.99
x264 [total]: encoded 130254 frames, 1.97 fps, 1833.99 kb/s
Общее
Уникальный идентификатор : 210938104482371626520258930300280469053 (0x9EB13380C2D6B6F6967B167E032D763D)
Полное имя : G:\Dryzja.dryzei.2013.H.264.BDRip-AVC.JRG.mkv
Формат : Matroska
Версия формата : Version 4 / Version 2
Размер файла : 1,44 Гбайт
Продолжительность : 1 ч. 30 м.
Общий поток : 2284 Кбит/сек
Название фильма : The Jolly Roger Release Group by http://Pirat.CA
Дата кодирования : UTC 2014-02-11 03:40:38
Программа кодирования : mkvmerge v6.6.0 ('The Edge Of The In Between') built on Dec 1 2013 17:55:00
Библиотека кодирования : libebml v1.3.0 + libmatroska v1.4.1
Видео
Идентификатор : 1
Формат : AVC
Формат/Информация : Advanced Video Codec
Профиль формата : High@L4.1
Параметр CABAC формата : Да
Параметр ReFrames формата : 7 кадров
Идентификатор кодека : V_MPEG4/ISO/AVC
Продолжительность : 1 ч. 30 м.
Битрейт : 1837 Кбит/сек
Ширина : 1008 пикселей
Высота : 544 пикселя
Соотношение сторон : 1,85:1
Режим частоты кадров : Постоянный
Частота кадров : 24,000 кадра/сек
Цветовое пространство : YUV
Субдискретизация насыщенности : 4:2:0
Битовая глубина : 8 бит
Тип развёртки : Прогрессивная
Бит/(Пиксели*Кадры) : 0.140
Размер потока : 1,13 Гбайт (78%)
Библиотека кодирования : x264 core 130 r2273 b3065e6
Настройки программы : cabac=1 / ref=7 / deblock=1:0:0 / analyse=0x3:0x133 / me=umh / subme=10 / psy=1 / psy_rd=1.00:0.00 / mixed_ref=1 / me_range=24 / chroma_me=1 / trellis=2 / 8x8dct=1 / cqm=0 / deadzone=21,11 / fast_pskip=0 / chroma_qp_offset=-2 / threads=3 / lookahead_threads=1 / sliced_threads=0 / nr=0 / decimate=1 / interlaced=0 / bluray_compat=0 / constrained_intra=0 / bframes=6 / b_pyramid=2 / b_adapt=2 / b_bias=0 / direct=3 / weightb=1 / open_gop=0 / weightp=2 / keyint=250 / keyint_min=23 / scenecut=40 / intra_refresh=0 / rc_lookahead=50 / rc=2pass / mbtree=1 / bitrate=1837 / ratetol=1.0 / qcomp=0.60 / qpmin=0 / qpmax=69 / qpstep=4 / cplxblur=20.0 / qblur=0.5 / ip_ratio=1.40 / aq=1:1.00
Default : Да
Forced : Нет
Аудио
Идентификатор : 2
Формат : AC-3
Формат/Информация : Audio Coding 3
Расширение режима : CM (complete main)
Параметр Endianness формата : Big
Идентификатор кодека : A_AC3
Продолжительность : 1 ч. 30 м.
Вид битрейта : Постоянный
Битрейт : 448 Кбит/сек
Каналы : 6 каналов
Расположение каналов : Front: L C R, Side: L R, LFE
Частота : 48,0 КГц
Битовая глубина : 16 бит
Метод сжатия : С потерями
Размер потока : 290 Мбайт (20%)
Default : Да
Forced : Нет

Скриншоты





Показать сообщения:    

Текущее время: 11-Дек 01:42

Часовой пояс: UTC + 11


Вы не можете начинать темы
Вы не можете отвечать на сообщения
Вы не можете редактировать свои сообщения
Вы не можете удалять свои сообщения
Вы не можете голосовать в опросах
Вы не можете прикреплять файлы к сообщениям
Вы не можете скачивать файлы

Сайт не предоставляет электронные версии произведений, а занимается лишь коллекционированием и каталогизацией ссылок, присылаемых и публикуемых на форуме нашими читателями. Если вы являетесь правообладателем какого-либо представленного материала и не желаете, чтобы ссылка на него находилась в нашем каталоге, свяжитесь с нами, и мы незамедлительно удалим ее. Файлы для обмена на трекере предоставлены пользователями сайта, и администрация не несет ответственности за их содержание. Просьба не заливать файлы, защищенные авторскими правами, а также файлы нелегального содержания!