+100


Топ за 24 часа
 
 

[Цитировать]

- Обитель теней / Marrowbone (2017) WEB-DL [H.264/1080p-LQ] «Мы здесь не одни»-Производство: Испания, Lions Gate International, Marrowbone, Telecinco Cinema
Жанр: Драма, Ужасы, Триллер
Режиссер: Серхио Х. Санчес
Продюсер: Белен Атьенса, Жислен Баруа, Хуан Антонио Байона, ...
Актеры: Джордж МакКэй, Аня Тейлор-Джой, Чарли Хитон, Миа Гот, Мэттью Стэгг, Николя Харрисон, Кайл Соллер, Том Фишер, Myra Kathryn Pearse, Пол Джессон ...
Описание:
Мрачная тайна окутывает старинный особняк, в котором Джек уединенно живет с братьями и сестрой. Однако обитель теней открыла свои двери для прекрасной незнакомки, живущей по соседству. Она пока не знает, что здесь в любой момент зловещие силы готовы нанести удар из темноты…

Возраст: 18+ (зрителям, достигшим 18 лет. запрещено для детей)
Дата мировой премьеры: 11 сентября 2017, ...
Дата российской премьеры: 16 ноября 2017, «Вольга»
Продолжительность: 01:46:00
Качество видео: WEB-DL 1080p
Перевод: Дублированный (iTunes)
Субтитры: Отсутствуют
Видео: AVC, 1920x800 (2.40:1), 25.000 fps, 4 554 Kbps (0.119 bit/pixel)
Аудио #1: AC-3, 48.0 KHz, 6 ch, 384 Kbps, CBR (Русский)
Аудио #2: AC-3, 48.0 KHz, 6 ch, 384 Kbps, CBR (Украинский)

MediaInfo

General
Complete name : Marrowbone.2017.WEB-DL.1080p.mkv
Format : Matroska
Format version : Version 4 / Version 2
File size : 3.94 GiB
Duration : 1 h 46 min
Overall bit rate : 5 324 kb/s
Encoded date : UTC 2018-02-21 11:33:08
Writing application : mkvmerge v9.5.0 ('Quiet Fire') 64bit
Writing library : libebml v1.3.4 + libmatroska v1.4.5
Video
ID : 1
Format : AVC
Format/Info : Advanced Video Codec
Format profile : High@L4
Format settings : CABAC / 5 Ref Frames
Format settings, CABAC : Yes
Format settings, ReFrames : 5 frames
Codec ID : V_MPEG4/ISO/AVC
Duration : 1 h 45 min
Bit rate : 4 554 kb/s
Width : 1 920 pixels
Height : 800 pixels
Display aspect ratio : 2.40:1
Frame rate mode : Constant
Frame rate : 25.000 FPS
Color space : YUV
Chroma subsampling : 4:2:0
Bit depth : 8 bits
Scan type : Progressive
Bits/(Pixel*Frame) : 0.119
Stream size : 3.37 GiB (86%)
Language : English
Default : Yes
Forced : No
Color range : Limited
Color primaries : BT.709
Transfer characteristics : BT.709
Matrix coefficients : BT.709
Audio #1
ID : 2
Format : AC-3
Format/Info : Audio Coding 3
Codec ID : A_AC3
Duration : 1 h 46 min
Bit rate mode : Constant
Bit rate : 384 kb/s
Channel(s) : 6 channels
Channel positions : Front: L C R, Side: L R, LFE
Sampling rate : 48.0 kHz
Frame rate : 31.250 FPS (1536 SPF)
Bit depth : 16 bits
Compression mode : Lossy
Stream size : 291 MiB (7%)
Language : Russian
Service kind : Complete Main
Default : Yes
Forced : No
Audio #2
ID : 3
Format : AC-3
Format/Info : Audio Coding 3
Codec ID : A_AC3
Duration : 1 h 46 min
Bit rate mode : Constant
Bit rate : 384 kb/s
Channel(s) : 6 channels
Channel positions : Front: L C R, Side: L R, LFE
Sampling rate : 48.0 kHz
Frame rate : 31.250 FPS (1536 SPF)
Bit depth : 16 bits
Compression mode : Lossy
Stream size : 291 MiB (7%)
Language : Ukrainian
Service kind : Complete Main
Default : No
Forced : No
Menu
00:00:00.000 : en:Глава 1
00:07:13.360 : en:Глава 2
00:14:15.000 : en:Глава 3
00:21:56.400 : en:Глава 4
00:30:31.760 : en:Глава 5
00:38:09.680 : en:Глава 6
00:45:12.320 : en:Глава 7
00:52:13.800 : en:Глава 8
00:59:37.440 : en:Глава 9
01:08:16.440 : en:Глава 10
01:15:55.520 : en:Глава 11
01:23:31.680 : en:Глава 12
01:31:03.400 : en:Глава 13
Скриншоты:




Показать сообщения:    

Текущее время: 23-Июн 19:13

Часовой пояс: UTC + 11


Вы не можете начинать темы
Вы не можете отвечать на сообщения
Вы не можете редактировать свои сообщения
Вы не можете удалять свои сообщения
Вы не можете голосовать в опросах
Вы не можете прикреплять файлы к сообщениям
Вы не можете скачивать файлы

Сайт не предоставляет электронные версии произведений, а занимается лишь коллекционированием и каталогизацией ссылок, присылаемых и публикуемых на форуме нашими читателями. Если вы являетесь правообладателем какого-либо представленного материала и не желаете, чтобы ссылка на него находилась в нашем каталоге, свяжитесь с нами, и мы незамедлительно удалим ее. Файлы для обмена на трекере предоставлены пользователями сайта, и администрация не несет ответственности за их содержание. Просьба не заливать файлы, защищенные авторскими правами, а также файлы нелегального содержания!