+100


 

[Цитировать]

- Матч всех звёзд НХЛ 2018 / 2018 NHL All-Star Game (28.01.2018) HDTVRip [H.264/720p-LQ] -Телекомпания: Eurosport Gold
Жанр: Спорт
Комментаторы: Сергей Федотов, Виталий Магранов
Описание: 29 января 2018 года, понедельник. 00:00 МСК
63-й матч всех звёзд Национальной хоккейной лиги состоялся 28 января 2018 года, в городе Тампе, штат Флорида, на домашней арене клуба «Тампа-Бэй Лайтнинг». Этот матч звёзд стал 2-м проводимым в Тампе. Матч звёзд проходит в формате мини-турнира 3 на 3. Команда победившая в финале получает $ 1 млн.
В программе Матча всех звёзд НХЛ 2018:
1/2 финала:
1. Тихоокеанский дивизион — Центральный дивизион
2. Атлантический дивизион — Столичный дивизион
Финал: 29 января 2018 года, понедельник. 02:30 МСК
3. Победитель 1 полуфинала — Победитель 2 полуфинала
Стадион: Амали-Арена (Тампа, шт. Флорида, США ), 19092 зрителя (98 % при вместимости 19500)
Главные судьи: Уэс Макколи (Канада), Дэйв Джексон (США)
Линейные судьи: Брайан Мач, Марк Шевчук
Релиз от: Багга
Продолжительность: 02:38:32
Качество видео: HDTVRip
Язык озвучки: Русский
Субтитры: отсутствуют
Видео: AVC/H.264, 1280x720 (16:9), ~3496 Kbps, 50 fps
Аудио: AAC, 2 ch, 48 kHz, ~132 Kbps

MediaInfo

Общее
Уникальный идентификатор : 308781943229856527369443641008850352731 (0xE84D3D34090AF06817D2A420D6D63A5B)
Полное имя : F:\SPORT\Хоккей\NHL 2017-2018\(28.01.2018)_NHL All-Star Game 2018.mkv
Формат : Matroska
Версия формата : Version 4 / Version 2
Размер файла : 4,02 Гбайт
Продолжительность : 2 ч. 38 м.
Общий поток : 3630 Кбит/сек
Дата кодирования : UTC 2018-02-07 13:46:57
Программа кодирования : mkvmerge v20.0.0 ('I Am The Sun') 32-bit
Библиотека кодирования : libebml v1.3.5 + libmatroska v1.4.8
Видео
Идентификатор : 1
Формат : AVC
Формат/Информация : Advanced Video Codec
Профиль формата : High@L3.2
Настройки формата : CABAC / 4 Ref Frames
Параметр CABAC формата : Да
Параметр RefFrames формата : 4 кадра
Идентификатор кодека : V_MPEG4/ISO/AVC
Продолжительность : 2 ч. 38 м.
Битрейт : 3496 Кбит/сек
Ширина : 1280 пикселей
Высота : 720 пикселей
Соотношение сторон : 16:9
Режим частоты кадров : Постоянный
Частота кадров : 50,000 кадров/сек
Цветовое пространство : YUV
Субдискретизация насыщенности : 4:2:0
Битовая глубина : 8 бит
Тип развёртки : Прогрессивная
Бит/(Пиксели*Кадры) : 0.076
Размер потока : 3,87 Гбайт (96%)
Default : Да
Forced : Нет
Аудио
Идентификатор : 2
Формат : AAC
Формат/Информация : Advanced Audio Codec
Профиль формата : LC
Идентификатор кодека : A_AAC-2
Продолжительность : 2 ч. 38 м.
Битрейт : 132 Кбит/сек
Каналы : 2 канала
Расположение каналов : Front: L R
Частота : 48,0 КГц
Частота кадров : 46,875 кадров/сек (1024 SPF)
Метод сжатия : С потерями
Размер потока : 148 Мбайт (4%)
Язык : Russian
Default : Да
Forced : Нет
Скриншоты:




Показать сообщения:    

Текущее время: 19-Июн 08:22

Часовой пояс: UTC + 11


Вы не можете начинать темы
Вы не можете отвечать на сообщения
Вы не можете редактировать свои сообщения
Вы не можете удалять свои сообщения
Вы не можете голосовать в опросах
Вы не можете прикреплять файлы к сообщениям
Вы не можете скачивать файлы

Сайт не предоставляет электронные версии произведений, а занимается лишь коллекционированием и каталогизацией ссылок, присылаемых и публикуемых на форуме нашими читателями. Если вы являетесь правообладателем какого-либо представленного материала и не желаете, чтобы ссылка на него находилась в нашем каталоге, свяжитесь с нами, и мы незамедлительно удалим ее. Файлы для обмена на трекере предоставлены пользователями сайта, и администрация не несет ответственности за их содержание. Просьба не заливать файлы, защищенные авторскими правами, а также файлы нелегального содержания!