+100


Топ за 24 часа
 
 

[Цитировать]

-Все только начинается / Just Getting Started (2017) TS-Производство: США / Broad Green Pictures
Жанр: Боевик, комедия
Режиссер: Рон Шелтон
Актеры: Морган Фримен, Томми Ли Джонс, Рене Руссо, Гленн Хедли, Джейн Сеймур, Шерил Ли Ральф, Джо Пантолиано, Элизабет Эшли, Рэйчел Де Ла Торре, Джонни Мэтис
Описание:
Дюк, некогда блистательный адвокат крупных преступных группировок, находясь под программой по защите свидетелей, зажигает на роскошной вилле Капри, устраивая безбашенные праздники жизни для своих гостей и превращая будни в яркий Jazz. Однажды под Рождество на виллу приезжает брутальный экс-агент ФБР Лео и переворачивает все вверх дном. Но, как оказалось, все только начинается: вслед за Лео на виллу подтягиваются парни из мафии, имеющие старый зуб на Дюка и Лео. Вечеринка будет жаркой!

Возраст: 16+ (зрителям, достигшим 16 лет)
Рейтинг MPAA: PG-13 (детям до 13 лет просмотр нежелателен)
Дата мировой премьеры: 1 декабря 2017
Дата премьеры в России: 11 января 2018, «Парадиз»

Продолжительность: 01:24:46
Качество видео: TS
Перевод: Любительский многоголосый (КОЛОБОК)
Субтитры: Отсутствуют
Реклама: Присутствуют вставки текстовой рекламы!
Видео: MPEG4, XviD, 720x304 (2.35:1), 23.976 fps, 1 839 Kbps (0.350 bit/pixel)
Аудио: AC-3, 48.0 KHz, 2 ch, 384 Kbps, CBR

MediaInfo

Общее
Полное имя : E:\NNM\Все только начинается\Just Getting Started 2017 TS.avi
Формат : AVI
Формат/Информация : Audio Video Interleave
Профиль формата : OpenDML
Размер файла : 1,32 Гбайт
Продолжительность : 1 ч. 24 м.
Общий поток : 2236 Кбит/сек
Видео
Идентификатор : 0
Формат : MPEG-4 Visual
Профиль формата : Advanced Simple@L5
Настройки формата : BVOP2
Параметр BVOP формата : 2
Параметр QPel формата : Нет
Параметр GMC формата : Без точки перехода
Параметр матрицы формата : Default (H.263)
Идентификатор кодека : XVID
Идентификатор кодека/Подсказка : XviD
Продолжительность : 1 ч. 24 м.
Битрейт : 1839 Кбит/сек
Ширина : 720 пикселей
Высота : 304 пикселя
Соотношение сторон : 2,35:1
Частота кадров : 23,976 (24000/1001) кадра/сек
Цветовое пространство : YUV
Субдискретизация насыщенности : 4:2:0
Битовая глубина : bit0
Тип развёртки : Прогрессивная
Метод сжатия : С потерями
Бит/(Пиксели*Кадры) : 0.350
Размер потока : 1,09 Гбайт (82%)
Библиотека кодирования : XviD 1.2.1 (UTC 2008-12-04)
Аудио
Идентификатор : 1
Формат : AC-3
Формат/Информация : Audio Coding 3
Идентификатор кодека : 2000
Продолжительность : 1 ч. 24 м.
Вид битрейта : Постоянный
Битрейт : 384 Кбит/сек
Каналы : 2 канала
Расположение каналов : Front: L R
Частота : 48,0 КГц
Частота кадров : 31,250 кадров/сек (1536 SPF)
Битовая глубина : 16 бит
Метод сжатия : С потерями
Размер потока : 233 Мбайт (17%)
Выравнивание : Соединение по промежуткам
Продолжительность промежутка : 32 мс. (0,77 видеокадр)
ServiceKind/String : Complete Main
Скриншоты:




Показать сообщения:    

Текущее время: 17-Янв 10:36

Часовой пояс: UTC + 11


Вы не можете начинать темы
Вы не можете отвечать на сообщения
Вы не можете редактировать свои сообщения
Вы не можете удалять свои сообщения
Вы не можете голосовать в опросах
Вы не можете прикреплять файлы к сообщениям
Вы не можете скачивать файлы

Сайт не предоставляет электронные версии произведений, а занимается лишь коллекционированием и каталогизацией ссылок, присылаемых и публикуемых на форуме нашими читателями. Если вы являетесь правообладателем какого-либо представленного материала и не желаете, чтобы ссылка на него находилась в нашем каталоге, свяжитесь с нами, и мы незамедлительно удалим ее. Файлы для обмена на трекере предоставлены пользователями сайта, и администрация не несет ответственности за их содержание. Просьба не заливать файлы, защищенные авторскими правами, а также файлы нелегального содержания!