+100


 

[Цитировать]

- Берегись автомобиля (1966) WEB-DLRip [H.264] -Производство: СССР / Мосфильм, Global 3 Pictures
Жанр: Мелодрама, Комедия, Криминал
Режиссер: Эльдар Рязанов
Актеры: Иннокентий Смоктуновский, Олег Ефремов, Любовь Добржанская, Анатолий Папанов, Ольга Аросева, Андрей Миронов, Георгий Жжёнов, Евгений Евстигнеев, Донатас Банионис, Любовь Соколова, Вячеслав Невинный, Готлиб Ронинсон, Галина Волчек
Описание:
Эта удивительная история вполне может считаться фантастической. Скромный и застенчивый страховой агент, актер самодеятельного театра Юрий Деточкин оказывается непримиримым борцом за справедливость.
Правда, для правосудия, представляемого актером того же театра, а в миру — следователем Подберезовиковым, этот Робин Гуд представляется опасным, хитроумным, изобретательным и неуловимым преступником…

Возраст: 0+ (для любой зрительской аудитории)
Продолжительность: 01:34:00
Качество видео: WEB-DLRip
Субтитры: Отсутствуют
Видео: AVC/H.264, 800x584, ~2883 Kbps
Аудио: AC3, 6 ch, 448 Kbps, 48.0 kHz

MediaInfo

Общее
Уникальный идентификатор : 173485826373475443446247992885284973584 (0x828427A0936F9EFDBE23C1D93C542C10)
Полное имя : F:\Downloads\Берегись автомобиля. 1966. NNMCLUB.mkv
Формат : Matroska
Версия формата : Version 4 / Version 2
Размер файла : 2,18 Гбайт
Продолжительность : 1 ч. 34 м.
Общий поток : 3324 Кбит/сек
Дата кодирования : UTC 2018-01-09 22:14:16
Программа кодирования : mkvmerge v7.9.0 ('Birds') 64bit
Библиотека кодирования : libebml v1.3.1 + libmatroska v1.4.2
Видео
Идентификатор : 1
Формат : AVC
Формат/Информация : Advanced Video Codec
Профиль формата : High@L4.1
Настройки формата : CABAC / 10 Ref Frames
Параметр CABAC формата : Да
Параметр RefFrames формата : 10 кадров
Идентификатор кодека : V_MPEG4/ISO/AVC
Продолжительность : 1 ч. 34 м.
Битрейт : 2883 Кбит/сек
Ширина : 800 пикселей
Высота : 584 пикселя
Соотношение сторон : 1,370
Режим частоты кадров : Постоянный
Частота кадров : 23,976 (24000/1001) кадра/сек
Цветовое пространство : YUV
Субдискретизация насыщенности : 4:2:0
Битовая глубина : 8 бит
Тип развёртки : Прогрессивная
Бит/(Пиксели*Кадры) : 0.257
Размер потока : 1,89 Гбайт (87%)
Заголовок : Берегись автомобиля
Библиотека кодирования : x264 core 146 r2538 121396c
Настройки программы : cabac=1 / ref=10 / deblock=1:-1:-1 / analyse=0x3:0x113 / me=umh / subme=10 / psy=1 / psy_rd=1.00:0.10 / mixed_ref=1 / me_range=32 / chroma_me=1 / trellis=2 / 8x8dct=1 / cqm=0 / deadzone=21,11 / fast_pskip=0 / chroma_qp_offset=-3 / threads=6 / lookahead_threads=1 / sliced_threads=0 / nr=0 / decimate=0 / interlaced=0 / bluray_compat=0 / constrained_intra=0 / bframes=7 / b_pyramid=2 / b_adapt=2 / b_bias=0 / direct=3 / weightb=1 / open_gop=0 / weightp=2 / keyint=250 / keyint_min=25 / scenecut=40 / intra_refresh=0 / rc_lookahead=60 / rc=2pass / mbtree=1 / bitrate=2883 / ratetol=1.0 / qcomp=0.60 / qpmin=0 / qpmax=69 / qpstep=4 / cplxblur=20.0 / qblur=0.5 / vbv_maxrate=14000 / vbv_bufsize=14000 / nal_hrd=none / filler=0 / ip_ratio=1.40 / aq=1:1.00
Язык : Russian
Default : Да
Forced : Нет
Аудио
Идентификатор : 2
Формат : AC-3
Формат/Информация : Audio Coding 3
Идентификатор кодека : A_AC3
Продолжительность : 1 ч. 32 м.
Вид битрейта : Постоянный
Битрейт : 448 Кбит/сек
Каналы : 6 каналов
Расположение каналов : Front: L C R, Side: L R, LFE
Частота : 48,0 КГц
Частота кадров : 31,250 кадров/сек (1536 SPF)
Битовая глубина : 16 бит
Метод сжатия : С потерями
Размер потока : 296 Мбайт (13%)
Заголовок : Русский, 48 kHz, AC3, 3/2 (L,C,R,l,r) + LFE ch, ~448.00 kbps avg
Язык : Russian
ServiceKind/String : Complete Main
Default : Да
Forced : Нет
Скриншоты:




Показать сообщения:    

Текущее время: 17-Янв 10:36

Часовой пояс: UTC + 11


Вы не можете начинать темы
Вы не можете отвечать на сообщения
Вы не можете редактировать свои сообщения
Вы не можете удалять свои сообщения
Вы не можете голосовать в опросах
Вы не можете прикреплять файлы к сообщениям
Вы не можете скачивать файлы

Сайт не предоставляет электронные версии произведений, а занимается лишь коллекционированием и каталогизацией ссылок, присылаемых и публикуемых на форуме нашими читателями. Если вы являетесь правообладателем какого-либо представленного материала и не желаете, чтобы ссылка на него находилась в нашем каталоге, свяжитесь с нами, и мы незамедлительно удалим ее. Файлы для обмена на трекере предоставлены пользователями сайта, и администрация не несет ответственности за их содержание. Просьба не заливать файлы, защищенные авторскими правами, а также файлы нелегального содержания!