+100


 

[Цитировать]

Пираты Карибского моря: Проклятие Черной жемчужины / Pirates of the Caribbean: The Curse of the Black Pearl (2003) 1080p BDRemux

Пираты Карибского моря: Проклятие Черной жемчужины / Pirates of the Caribbean: The Curse of the Black Pearl (2003) 1080p BDRemux - Год выпуска 2003
Страна США, Великобритания, Jerry Bruckheimer Films, Second Mate Productions, Walt Disney Pictures
Жанр Боевик, Комедия, Приключения, Семейный
Продолжительность 02:23:15
Перевод Дублированный (Профессиональный) - Cубтитры Russian (Forсed), Russian, English
Режиссер Гор Вербински, Роб Маршалл, Хоаким Роннинг, Эспен Сандберг
В ролях Джонни Депп, Джеффри Раш, Орландо Блум, Кира Найтли, Джек Девенпорт, Джонатан Прайс, Ли Аренберг, Маккензи Крук, Дэмиан О’Хейр, Джиллз Нью- Описание Жизнь харизматичного авантюриста, капитана Джека Воробья, полная увлекательных приключений, резко меняется, когда его заклятый враг - капитан Барбосса - похищает корабль Джека, Черную Жемчужину, а затем нападает на Порт Ройал и крадет прекрасную дочь губернатора, Элизабет Свонн.Друг детства Элизабет, Уилл Тернер, вместе с Джеком возглавляет спасательную экспедицию на самом быстром корабле Британии, в попытке вызволить девушку из плена и заодно отобрать у злодея Черную Жемчужину. Вслед за этой парочкой отправляется амбициозный коммодор Норрингтон, который к тому же числится женихом Элизабет.Однако Уилл не знает, что над Барбоссой висит вечное проклятие, при лунном свете превращающее его с командой в живых скелетов. Проклятье будет снято лишь тогда, когда украденное золото Ацтеков будет возвращено пиратами на старое место.- --Возраст: 12+ (зрителям, достигшим 12 лет)
Рейтинг MPAA: PG-13 (детям до 13 лет просмотр нежелателен) -Дата российской премьеры: 20 августа 2003, «Каскад»- Качество BD-Remux 1080p
Формат MKV
Видео кодек AVC/H.264
Аудио кодек AC3/DTS
Видео AVC/H.264, 1920x1080, (16:9), 23.976 fps fps
Аудио1 : AC3, 6 ch, 640 Кбит/с - Русский
Аудио2 : DTS-HD MA, 6 ch, 4060 Кбит/с - Английский -

Mediainfo

Format : Matroska
Format version : Version 4 / Version 2
File size : 24.8 GiB
Duration : 2h 23mn
Overall bit rate mode : Variable
Overall bit rate : 24.8 Mbps
Movie name : Pirates.of.the.Caribbean.The.Curse.of.the.Black.Pearl.2003.BDRemux.1080p
Encoded date : UTC 2017-05-15 11:48:46
Writing application : mkvmerge v8.6.1 ('Flying') 64bit
Writing library : libebml v1.3.3 + libmatroska v1.4.4
DURATION : 02:12:40.013000000
NUMBER_OF_FRAMES : 1619
NUMBER_OF_BYTES : 47223
_STATISTICS_WRITING_APP : mkvmerge v8.6.1 ('Flying') 64bit
_STATISTICS_WRITING_DATE_UTC : 2017-05-15 11:48:46
_STATISTICS_TAGS : BPS DURATION NUMBER_OF_FRAMES NUMBER_OF_BYTES
Video
ID : 1
Format : AVC
Format/Info : Advanced Video Codec
Format profile : High@L4.1
Format settings, CABAC : Yes
Format settings, ReFrames : 3 frames
Format settings, GOP : M=3, N=24
Codec ID : V_MPEG4/ISO/AVC
Duration : 2h 23mn
Bit rate mode : Variable
Maximum bit rate : 40.0 Mbps
Width : 1 920 pixels
Height : 1 080 pixels
Display aspect ratio : 16:9
Frame rate mode : Constant
Frame rate : 23.976 fps
Color space : YUV
Chroma subsampling : 4:2:0
Bit depth : 8 bits
Scan type : Progressive
Title : Pirates.of.the.Caribbean.The.Curse.of.the.Black.Pearl.2003.BDRemux.1080p
Language : English
Default : Yes
Forced : No
Audio #1
ID : 2
Format : AC-3
Format/Info : Audio Coding 3
Mode extension : CM (complete main)
Format settings, Endianness : Big
Codec ID : A_AC3
Duration : 2h 23mn
Bit rate mode : Constant
Bit rate : 640 Kbps
Channel count : 6 channels
Channel positions : Front: L C R, Side: L R, LFE
Sampling rate : 48.0 KHz
Bit depth : 16 bits
Compression mode : Lossy
Stream size : 656 MiB (3%)
Title : Russian, AC3, 6 ch, 640 kb/s
Language : Russian
Default : Yes
Forced : No
Audio #2
ID : 3
Format : DTS
Format/Info : Digital Theater Systems
Format profile : MA / Core
Mode : 16
Format settings, Endianness : Big
Codec ID : A_DTS
Duration : 2h 23mn
Bit rate mode : Variable
Bit rate : Unknown / 1 509 Kbps
Channel count : 6 channels
Channel positions : Front: L C R, Side: L R, LFE
Sampling rate : 48.0 KHz
Bit depth : 24 bits
Compression mode : Lossless / Lossy
Title : English, DTS-HD MA, 6 ch, 4060 kb/s
Language : English
Default : No
Forced : No
Text #1
ID : 4
Format : UTF-8
Codec ID : S_TEXT/UTF8
Codec ID/Info : UTF-8 Plain Text
Title : Forced
Language : Russian
Default : Yes
Forced : Yes
Text #2
ID : 5
Format : UTF-8
Codec ID : S_TEXT/UTF8
Codec ID/Info : UTF-8 Plain Text
Title : Full
Language : Russian
Default : No
Forced : No
Text #3
ID : 6
Format : UTF-8
Codec ID : S_TEXT/UTF8
Codec ID/Info : UTF-8 Plain Text
Title : Full
Language : English
Default : No
Forced : No

Скриншоты

Пираты Карибского моря: Сундук мертвеца / Pirates of the Caribbean: Dead Man's Chest (2006) 1080p BDRemux

Пираты Карибского моря: Сундук мертвеца / Pirates of the Caribbean: Dead Man's Chest (2006) 1080p BDRemux - Год выпуска 2006
Страна США, Великобритания, Jerry Bruckheimer Films, Second Mate Productions, Walt Disney Pictures
Жанр Боевик, Комедия, Приключения, Семейный
Продолжительность 02:30:39
Перевод Дублированный (Профессиональный) - Cубтитры Russian (Forсed), Russian, English
Режиссер Гор Вербински, Роб Маршалл, Хоаким Роннинг, Эспен Сандберг
В ролях Джонни Депп, Орландо Блум, Кира Найтли, Джек Девенпорт, Билл Найти, Джонатан Прайс, Ли Аренберг, Маккензи Крук, Кевин МакНалли, Дэвид Бейли, Том Холландер, Стеллан Скарсгард, Наоми Харрис, Мартин Клеббэ, Дэвид Шофилд, Алекс Нортон, Лоурен Мехер, Jimmy Roussounis, Морэй Тредуэлл, Энтони Патрицио, Сан Шелла- Описание Вновь оказавшись в ирреальном мире, лихой капитан Джек Воробей неожиданно узнает, что является должником легендарного капитана «Летучего Голландца» Дэйви Джонса. Джек должен в кратчайшие сроки решить эту проблему, иначе ему грозит вечное проклятие и рабское существование после смерти. Вдобавок ко всему, срывается свадьба Уилла Тернера и Элизабет Суонн, которые вынуждены составить Джеку компанию в его злоключениях...
- --Возраст: 12+ (зрителям, достигшим 12 лет)
Рейтинг MPAA: PG-13 (детям до 13 лет просмотр нежелателен) -Дата российской премьеры: 13 июля 2006, «Каскад - Качество BD-Remux 1080p
Формат MKV
Видео кодек AVC/H.264
Аудио кодек AC3/DTS
Видео AVC/H.264 1920x1080, (16:9), 23.976 fps fps
Аудио1 : AC3, 6 ch, 640 Кбит/с - Русский
Аудио2 :DTS-HD MA, 6 ch, 4187 Кбит/с - Английский -

Mediainfo

Format : Matroska
Format version : Version 4 / Version 2
File size : 25.1 GiB
Duration : 2h 30mn
Overall bit rate mode : Variable
Overall bit rate : 23.8 Mbps
Movie name : Pirates.of.the.Caribbean.Dead.Man's.Chest.2006.BDRemux.1080p
Encoded date : UTC 2017-05-27 12:45:36
Writing application : mkvmerge v8.6.1 ('Flying') 64bit
Writing library : libebml v1.3.3 + libmatroska v1.4.4
DURATION : 02:18:36.037000000
NUMBER_OF_FRAMES : 1227
NUMBER_OF_BYTES : 41824
_STATISTICS_WRITING_APP : mkvmerge v8.6.1 ('Flying') 64bit
_STATISTICS_WRITING_DATE_UTC : 2017-05-27 12:45:36
_STATISTICS_TAGS : BPS DURATION NUMBER_OF_FRAMES NUMBER_OF_BYTES
Video
ID : 1
Format : AVC
Format/Info : Advanced Video Codec
Format profile : High@L4.1
Format settings, CABAC : Yes
Format settings, ReFrames : 3 frames
Format settings, GOP : M=3, N=24
Codec ID : V_MPEG4/ISO/AVC
Duration : 2h 30mn
Bit rate mode : Variable
Maximum bit rate : 40.0 Mbps
Width : 1 920 pixels
Height : 1 080 pixels
Display aspect ratio : 16:9
Frame rate mode : Constant
Frame rate : 23.976 fps
Color space : YUV
Chroma subsampling : 4:2:0
Bit depth : 8 bits
Scan type : Progressive
Title : Pirates.of.the.Caribbean.Dead.Man's.Chest.2006.BDRemux.1080p
Language : English
Default : Yes
Forced : No
Audio #1
ID : 2
Format : AC-3
Format/Info : Audio Coding 3
Mode extension : CM (complete main)
Format settings, Endianness : Big
Codec ID : A_AC3
Duration : 2h 30mn
Bit rate mode : Constant
Bit rate : 640 Kbps
Channel count : 6 channels
Channel positions : Front: L C R, Side: L R, LFE
Sampling rate : 48.0 KHz
Bit depth : 16 bits
Compression mode : Lossy
Stream size : 690 MiB (3%)
Title : Russian, AC3, 6 ch, 640 kb/s
Language : Russian
Default : Yes
Forced : No
Audio #2
ID : 3
Format : DTS
Format/Info : Digital Theater Systems
Format profile : MA / Core
Mode : 16
Format settings, Endianness : Big
Codec ID : A_DTS
Duration : 2h 30mn
Bit rate mode : Variable
Bit rate : Unknown / 1 509 Kbps
Channel count : 6 channels
Channel positions : Front: L C R, Side: L R, LFE
Sampling rate : 48.0 KHz
Bit depth : 24 bits
Compression mode : Lossless / Lossy
Title : English, DTS-HD MA, 6 ch, 4187 kb/s
Language : English
Default : No
Forced : No
Text #1
ID : 4
Format : UTF-8
Codec ID : S_TEXT/UTF8
Codec ID/Info : UTF-8 Plain Text
Title : Forced
Language : Russian
Default : Yes
Forced : Yes
Text #2
ID : 5
Format : UTF-8
Codec ID : S_TEXT/UTF8
Codec ID/Info : UTF-8 Plain Text
Title : Full
Language : Russian
Default : No
Forced : No
Text #3
ID : 6
Format : UTF-8
Codec ID : S_TEXT/UTF8
Codec ID/Info : UTF-8 Plain Text
Title : Full
Language : English
Default : No
Forced : No

Скриншоты

Пираты Карибского моря: На краю Света / Pirates of the Caribbean: At World's End (2007) 1080p BDRemux

Пираты Карибского моря: На краю Света / Pirates of the Caribbean: At World's End (2007) 1080p BDRemux - Год выпуска 2007
Страна США, Великобритания, Jerry Bruckheimer Films, Second Mate Productions, Walt Disney Pictures
Жанр Боевик, Комедия, Приключения, Семейный
Продолжительность 02:48:31
Перевод Дублированный (Профессиональный) - Cубтитры Russian (Forсed), Russian, English
Режиссер Гор Вербински, Роб Маршалл, Хоаким Роннинг, Эспен Сандберг
В ролях Джонни Депп, Джеффри Раш, Орландо Блум, Кира Найтли, Джек Девенпорт, Билл Найти, Джонатан Прайс, Маккензи Крук, Ли Аренберг, Кевин МакНалли, Дэвид Бейли, Стеллан Скарсгард, Том Холландер, Наоми Харрис, Мартин Клеббэ, Дэвид Шофилд, Грег Эллис, Лоурен Мехер, Клайв Эшборн, Уинстон Эллис, Кристофер Адамсон- Описание Новые приключения Джека Воробья и его друзей Уилла Тернера и Элизабет Суонн. На этот раз Уиллу и Элизабет придется объединиться с самим Капитаном Барбоссой для того, чтобы отправиться на край света и спасти своего друга - Джека. Ситуация осложняется тем, что Элизабет попадает к сингапурским пиратам...
- --Возраст: 12+ (зрителям, достигшим 12 лет)
Рейтинг MPAA: PG-13 (детям до 13 лет просмотр нежелателен) -Дата российской премьеры: 24 мая 2007, «BVSPR» - Качество BD-Remux 1080p
Формат MKV
Видео кодек AVC/H.264
Аудио кодек AC3/DTS
Видео AVC/H.264 1920x1080, (16:9), 23.976 fps fps
Аудио1 :AC3, 6 ch, 640 Кбит/с - Русский
Аудио2 :DTS-HD MA, 6 ch, 4160 Кбит/с - Английский -

Mediainfo

Format : Matroska
Format version : Version 4 / Version 2
File size : 31.7 GiB
Duration : 2h 48mn
Overall bit rate mode : Variable
Overall bit rate : 26.9 Mbps
Movie name : Pirates.of.the.Caribbean.At.World's.End.2007.BDRemux.1080p
Encoded date : UTC 2017-05-28 14:17:44
Writing application : mkvmerge v8.6.1 ('Flying') 64bit
Writing library : libebml v1.3.3 + libmatroska v1.4.4
DURATION : 02:46:28.918000000
NUMBER_OF_FRAMES : 1516
NUMBER_OF_BYTES : 49114
_STATISTICS_WRITING_APP : mkvmerge v8.6.1 ('Flying') 64bit
_STATISTICS_WRITING_DATE_UTC : 2017-05-28 14:17:44
_STATISTICS_TAGS : BPS DURATION NUMBER_OF_FRAMES NUMBER_OF_BYTES
Video
ID : 1
Format : AVC
Format/Info : Advanced Video Codec
Format profile : High@L4.1
Format settings, CABAC : Yes
Format settings, ReFrames : 3 frames
Format settings, GOP : M=3, N=24
Codec ID : V_MPEG4/ISO/AVC
Duration : 2h 48mn
Bit rate mode : Variable
Maximum bit rate : 40.0 Mbps
Width : 1 920 pixels
Height : 1 080 pixels
Display aspect ratio : 16:9
Frame rate mode : Constant
Frame rate : 23.976 fps
Color space : YUV
Chroma subsampling : 4:2:0
Bit depth : 8 bits
Scan type : Progressive
Title : Pirates.of.the.Caribbean.At.World's.End.2007.BDRemux.1080p
Language : English
Default : Yes
Forced : No
Audio #1
ID : 2
Format : AC-3
Format/Info : Audio Coding 3
Mode extension : CM (complete main)
Format settings, Endianness : Big
Codec ID : A_AC3
Duration : 2h 48mn
Bit rate mode : Constant
Bit rate : 640 Kbps
Channel count : 6 channels
Channel positions : Front: L C R, Side: L R, LFE
Sampling rate : 48.0 KHz
Bit depth : 16 bits
Compression mode : Lossy
Stream size : 771 MiB (2%)
Title : Russian, AC3, 6 ch, 640 kb/s
Language : Russian
Default : Yes
Forced : No
Audio #2
ID : 3
Format : DTS
Format/Info : Digital Theater Systems
Format profile : MA / Core
Mode : 16
Format settings, Endianness : Big
Codec ID : A_DTS
Duration : 2h 48mn
Bit rate mode : Variable
Bit rate : Unknown / 1 509 Kbps
Channel count : 6 channels
Channel positions : Front: L C R, Side: L R, LFE
Sampling rate : 48.0 KHz
Bit depth : 24 bits
Compression mode : Lossless / Lossy
Title : English, DTS-HD MA, 6 ch, 4160 kb/s
Language : English
Default : No
Forced : No
Text #1
ID : 4
Format : UTF-8
Codec ID : S_TEXT/UTF8
Codec ID/Info : UTF-8 Plain Text
Title : Forced
Language : Russian
Default : Yes
Forced : Yes
Text #2
ID : 5
Format : UTF-8
Codec ID : S_TEXT/UTF8
Codec ID/Info : UTF-8 Plain Text
Title : Full
Language : Russian
Default : No
Forced : No
Text #3
ID : 6
Format : UTF-8
Codec ID : S_TEXT/UTF8
Codec ID/Info : UTF-8 Plain Text
Title : Full
Language : English
Default : No
Forced : No

Скриншоты

Пираты Карибского моря: На странных берегах / Pirates of the Caribbean: On Stranger Tides (2011) 1080p BDRemux

Пираты Карибского моря: На странных берегах / Pirates of the Caribbean: On Stranger Tides (2011) 1080p BDRemux - Год выпуска 2011
Страна США, Великобритания, Jerry Bruckheimer Films, Second Mate Productions, Walt Disney Pictures
Жанр Боевик, Комедия, Приключения, Семейный
Продолжительность 02:16:23
Перевод Дублированный (Профессиональный) - Cубтитры Russian (Forсed), Russian, English
Режиссер Роб Маршалл
В ролях Джонни Депп, Пенелопа Крус, Джеффри Раш, Иэн МакШейн, Кевин МакНэлли, Стивен Грэм, Сэм Клафлин, Астрид Берже-Фрисби, Кит Ричардс, Ричард Гриф- Описание В новой истории о поисках истины, предательстве, вечной молодости и смертельной опасности капитану Джеку Воробью предстоит столкнуться с женщиной из своего прошлого Анжеликой. До самого конца не будет понятно, связывает ли их настоящая любовь, или же Анжелика искусно притворяется, чтобы вместе с Джеком добраться до таинственного источника вечной молодости. Она силой принуждает капитана Джека Воробья взойти на корабль «Месть Королевы Анны», которым управляет коварный злодей Черная Борода. Наш герой оказывается в ситуации, когда он не знает, чего ему бояться больше - ужасного злодея или же свою давнюю подругу.
- --Возраст: 12+ (зрителям, достигшим 12 лет)
Рейтинг MPAA: PG-13 (детям до 13 лет просмотр нежелателен) -Дата российской премьеры: 18 мая 2011, «WDSSPR» - Качество BD-Remux 1080p
Формат MKV
Видео кодек AVC/H.264
Аудио кодек AC3/DTS
Видео AVC/H.264 1920x1080, (16:9), 23.976 fps fps
Аудио1 :AC3, 6 ch, 640 Кбит/с - Русский
Аудио2 :DTS-HD MA, 8 ch, 5479 Кбит/с - Английский -

Mediainfo

Format : Matroska
Format version : Version 4 / Version 2
File size : 30.4 GiB
Duration : 2h 16mn
Overall bit rate mode : Variable
Overall bit rate : 31.9 Mbps
Movie name : Pirates.of.the.Caribbean.On.Stranger.Tides.2011.BDRemux.1080p
Encoded date : UTC 2017-05-29 08:26:49
Writing application : mkvmerge v8.6.1 ('Flying') 64bit
Writing library : libebml v1.3.3 + libmatroska v1.4.4
DURATION : 02:05:48.733000000
NUMBER_OF_FRAMES : 1331
NUMBER_OF_BYTES : 44430
_STATISTICS_WRITING_APP : mkvmerge v8.6.1 ('Flying') 64bit
_STATISTICS_WRITING_DATE_UTC : 2017-05-29 08:26:49
_STATISTICS_TAGS : BPS DURATION NUMBER_OF_FRAMES NUMBER_OF_BYTES
Video
ID : 1
Format : AVC
Format/Info : Advanced Video Codec
Format profile : High@L4.1
Format settings, CABAC : Yes
Format settings, ReFrames : 4 frames
Format settings, GOP : M=3, N=12
Codec ID : V_MPEG4/ISO/AVC
Duration : 2h 16mn
Bit rate mode : Variable
Maximum bit rate : 34.0 Mbps
Width : 1 920 pixels
Height : 1 080 pixels
Display aspect ratio : 16:9
Frame rate mode : Constant
Frame rate : 23.976 fps
Color space : YUV
Chroma subsampling : 4:2:0
Bit depth : 8 bits
Scan type : Progressive
Title : Pirates.of.the.Caribbean.On.Stranger.Tides.2011.BDRemux.1080p
Language : English
Default : Yes
Forced : No
Audio #1
ID : 2
Format : AC-3
Format/Info : Audio Coding 3
Mode extension : CM (complete main)
Format settings, Endianness : Big
Codec ID : A_AC3
Duration : 2h 16mn
Bit rate mode : Constant
Bit rate : 640 Kbps
Channel count : 6 channels
Channel positions : Front: L C R, Side: L R, LFE
Sampling rate : 48.0 KHz
Bit depth : 16 bits
Compression mode : Lossy
Stream size : 624 MiB (2%)
Title : Russian, AC3, 6 ch, 640 kb/s
Language : Russian
Default : Yes
Forced : No
Audio #2
ID : 3
Format : DTS
Format/Info : Digital Theater Systems
Format profile : MA / Core
Mode : 16
Format settings, Endianness : Big
Codec ID : A_DTS
Duration : 2h 16mn
Bit rate mode : Variable
Bit rate : Unknown / 1 509 Kbps
Channel count : 8 channels / 6 channels
Channel positions : Front: L C R, Side: L R, Back: L R, LFE / Front: L C R, Side: L R, LFE
Sampling rate : 48.0 KHz
Bit depth : 24 bits
Compression mode : Lossless / Lossy
Title : English, DTS-HD MA, 8 ch, 5479 kb/s
Language : English
Default : No
Forced : No
Text #1
ID : 4
Format : UTF-8
Codec ID : S_TEXT/UTF8
Codec ID/Info : UTF-8 Plain Text
Title : Forced
Language : Russian
Default : Yes
Forced : Yes
Text #2
ID : 5
Format : UTF-8
Codec ID : S_TEXT/UTF8
Codec ID/Info : UTF-8 Plain Text
Title : Full
Language : Russian
Default : No
Forced : No
Text #3
ID : 6
Format : UTF-8
Codec ID : S_TEXT/UTF8
Codec ID/Info : UTF-8 Plain Text
Title : Full
Language : English
Default : No
Forced : No

Скриншоты

Пираты Карибского Моря: Мертвецы Не Рассказывают Сказки / Pirates of the Caribbean: Dead Men Tell No Tales (2017) 1080p BDRemux

Пираты Карибского Моря: Мертвецы Не Рассказывают Сказки / Pirates of the Caribbean: Dead Men Tell No Tales (2017) 1080p BDRemux - Год выпуска 2017
Страна США, Великобритания, Jerry Bruckheimer Films, Second Mate Productions, Walt Disney Pictures
Жанр Боевик, Комедия, Приключения, Семейный

Продолжительность 02:09:07
Перевод Дублированный (Профессиональный) - Cубтитры Russian (Forсed), Russian, English
Режиссер Роб Маршалл
В ролях Джонни Депп, Хавьер Бардем, Джеффри Раш, Брентон Туэйтс, Кая Скоделарио, Кевин МакНэлли, Голшифте Фарахани, Дэвид Уэнэм, Стивен Грэм, Энгус Барнетт- Описание Исчерпавший свою удачу капитан Джек Воробей обнаруживает, что за ним охотится его старый неприятель, ужасный капитан Салазар и его призрачные пираты. Они только что сбежали из Дьявольского треугольника и намерены уничтожить всех пиратов, включая Джека. Поможет спастись лишь могущественный артефакт — трезубец Посейдона, который дарует своему обладателю полный контроль над морями.
- --Возраст: 12+ (зрителям, достигшим 12 лет)
Рейтинг MPAA: PG-13 (детям до 13 лет просмотр нежелателен) -Дата российской премьеры: 25 мая 2017, «WDSSPR»
- Качество BD-Remux 1080p
Формат MKV
Видео кодек AVC/H.264
Аудио кодек AC3/DTS
Видео AVC/H.264 1920x1080, (16:9), 23.976 fps fps
Аудио1 :AC3, 6 ch, 640 Кбит/с - Русский
Аудио2 :DTS-HD MA, 8 ch, 5599 Кбит/с - Английский -

Mediainfo

Format : Matroska
Format version : Version 4 / Version 2
File size : 30.8 GiB
Duration : 2h 9mn
Overall bit rate mode : Variable
Overall bit rate : 34.1 Mbps
Movie name : Pirates.of.the.Caribbean.Dead.Men.Tell.No.Tales.2017.BDRemux.1080p
Encoded date : UTC 2017-09-16 12:41:13
Writing application : mkvmerge v8.6.1 ('Flying') 64bit
Writing library : libebml v1.3.3 + libmatroska v1.4.4
DURATION : 01:55:13.364000000
NUMBER_OF_FRAMES : 1435
NUMBER_OF_BYTES : 39151
_STATISTICS_WRITING_APP : mkvmerge v8.6.1 ('Flying') 64bit
_STATISTICS_WRITING_DATE_UTC : 2017-09-16 12:41:13
_STATISTICS_TAGS : BPS DURATION NUMBER_OF_FRAMES NUMBER_OF_BYTES
Video
ID : 1
Format : AVC
Format/Info : Advanced Video Codec
Format profile : High@L4.1
Format settings, CABAC : Yes
Format settings, ReFrames : 4 frames
Codec ID : V_MPEG4/ISO/AVC
Duration : 2h 9mn
Bit rate mode : Variable
Maximum bit rate : 34.5 Mbps
Width : 1 920 pixels
Height : 1 080 pixels
Display aspect ratio : 16:9
Frame rate mode : Constant
Frame rate : 23.976 fps
Color space : YUV
Chroma subsampling : 4:2:0
Bit depth : 8 bits
Scan type : Progressive
Title : Pirates.of.the.Caribbean.Dead.Men.Tell.No.Tales.2017.BDRemux.1080p
Language : English
Default : Yes
Forced : No
Audio #1
ID : 2
Format : AC-3
Format/Info : Audio Coding 3
Mode extension : CM (complete main)
Format settings, Endianness : Big
Codec ID : A_AC3
Duration : 2h 9mn
Bit rate mode : Constant
Bit rate : 640 Kbps
Channel count : 6 channels
Channel positions : Front: L C R, Side: L R, LFE
Sampling rate : 48.0 KHz
Bit depth : 16 bits
Compression mode : Lossy
Stream size : 591 MiB (2%)
Title : Russian, AC3, 6 ch, 640 kb/s
Language : Russian
Default : Yes
Forced : No
Audio #2
ID : 3
Format : DTS
Format/Info : Digital Theater Systems
Format profile : MA / Core
Mode : 16
Format settings, Endianness : Big
Codec ID : A_DTS
Duration : 2h 9mn
Bit rate mode : Variable
Bit rate : Unknown / 1 509 Kbps
Channel count : 8 channels / 6 channels
Channel positions : Front: L C R, Side: L R, Back: L R, LFE / Front: L C R, Side: L R, LFE
Sampling rate : 48.0 KHz
Bit depth : 24 bits
Compression mode : Lossless / Lossy
Title : English, DTS-HD MA, 8 ch, 5599 kb/s
Language : English
Default : No
Forced : No
Text #1
ID : 4
Format : UTF-8
Codec ID : S_TEXT/UTF8
Codec ID/Info : UTF-8 Plain Text
Title : Forced
Language : Russian
Default : Yes
Forced : Yes
Text #2
ID : 5
Format : UTF-8
Codec ID : S_TEXT/UTF8
Codec ID/Info : UTF-8 Plain Text
Title : Full
Language : Russian
Default : No
Forced : No
Text #3
ID : 6
Format : UTF-8
Codec ID : S_TEXT/UTF8
Codec ID/Info : UTF-8 Plain Text
Title : Full
Language : English
Default : No
Forced : No

Скриншоты

-




Показать сообщения:    

Текущее время: 21-Июн 19:26

Часовой пояс: UTC + 11


Вы не можете начинать темы
Вы не можете отвечать на сообщения
Вы не можете редактировать свои сообщения
Вы не можете удалять свои сообщения
Вы не можете голосовать в опросах
Вы не можете прикреплять файлы к сообщениям
Вы не можете скачивать файлы

Сайт не предоставляет электронные версии произведений, а занимается лишь коллекционированием и каталогизацией ссылок, присылаемых и публикуемых на форуме нашими читателями. Если вы являетесь правообладателем какого-либо представленного материала и не желаете, чтобы ссылка на него находилась в нашем каталоге, свяжитесь с нами, и мы незамедлительно удалим ее. Файлы для обмена на трекере предоставлены пользователями сайта, и администрация не несет ответственности за их содержание. Просьба не заливать файлы, защищенные авторскими правами, а также файлы нелегального содержания!