+100


 

[Цитировать]

- Пресс-конференция Президента России В. В. Путина (2017.12.14) WEB-DL [H.264/720p-LQ] -Телекомпания: Россия
Жанр: Пресс-конференция
Описание:
Ежегодная большая пресс-конференция Президента РФ Владимира Путина, в ходе которой он отвечает на вопросы представителей СМИ мирового сообщества...
Релиз от: svlesin
Продолжительность: ~ 03:41:45
Качество видео: WEB-DL
Субтитры: Отсутствуют
Видео: AVC, 1280x720 (16:9), 25.000 fps, 1 501 Kbps (0.065 bit/pixel)
Аудио: AC-3, 44.1 KHz, 2 ch, 192 Kbps, CBR

MediaInfo

General
Unique ID                   : 228418707593226255820675627668976582837 (0xABD7D7C70FFFCEDFBF94F4B6417640B5)
Complete name               : C:\Users\Администратор\Videos\Пресс-конференция Президента России В. В. Путина (2017.12.14)_720.mkv
Format                      : Matroska
Format version              : Version 4 / Version 2
File size                   : 2.68 GiB
Duration                    : 3 h 41 min
Overall bit rate            : 1 728 kb/s
Movie name                  : Пресс-конференция Президента России В. В. Путина (2017.12.14)_720_nnm-club.name
Encoded date                : UTC 2017-12-14 16:01:12
Writing application         : mkvmerge v17.0.0 ('Be Ur Friend') 64-bit
Writing library             : libebml v1.3.5 + libmatroska v1.4.8
Video
ID                          : 1
Format                      : AVC
Format/Info                 : Advanced Video Codec
Format profile              : [url=mailto:Main@L3.1]Main@L3.1[/url]
Format settings             : CABAC / 3 Ref Frames
Format settings, CABAC      : Yes
Format settings, RefFrames  : 3 frames
Codec ID                    : V_MPEG4/ISO/AVC
Duration                    : 3 h 41 min
Bit rate                    : 1 534 kb/s
Width                       : 1 280 pixels
Height                      : 720 pixels
Display aspect ratio        : 16:9
Frame rate mode             : Constant
Frame rate                  : 25.000 FPS
Color space                 : YUV
Chroma subsampling          : 4:2:0
Bit depth                   : 8 bits
Scan type                   : Progressive
Bits/(Pixel*Frame)          : 0.067
Stream size                 : 2.38 GiB (89%)
Default                     : Yes
Forced                      : No
Color range                 : Limited
Color primaries             : BT.709
Transfer characteristics    : BT.709
Matrix coefficients         : BT.709
Audio
ID                          : 2
Format                      : AC-3
Format/Info                 : Audio Coding 3
Format settings, Endianness : Big
Codec ID                    : A_AC3
Duration                    : 3 h 41 min
Bit rate mode               : Constant
Bit rate                    : 192 kb/s
Channel(s)                  : 2 channels
Channel positions           : Front: L R
Sampling rate               : 44.1 kHz
Frame rate                  : 28.711 FPS (1536 SPF)
Bit depth                   : 16 bits
Compression mode            : Lossy
Stream size                 : 305 MiB (11%)
Service kind                : Complete Main
Default                     : Yes
Forced                      : No
Скриншоты:




Показать сообщения:    

Текущее время: 21-Июн 19:25

Часовой пояс: UTC + 11


Вы не можете начинать темы
Вы не можете отвечать на сообщения
Вы не можете редактировать свои сообщения
Вы не можете удалять свои сообщения
Вы не можете голосовать в опросах
Вы не можете прикреплять файлы к сообщениям
Вы не можете скачивать файлы

Сайт не предоставляет электронные версии произведений, а занимается лишь коллекционированием и каталогизацией ссылок, присылаемых и публикуемых на форуме нашими читателями. Если вы являетесь правообладателем какого-либо представленного материала и не желаете, чтобы ссылка на него находилась в нашем каталоге, свяжитесь с нами, и мы незамедлительно удалим ее. Файлы для обмена на трекере предоставлены пользователями сайта, и администрация не несет ответственности за их содержание. Просьба не заливать файлы, защищенные авторскими правами, а также файлы нелегального содержания!