+100


Топ за 24 часа
 
 

[Цитировать]

-Открытый перелом / Compound Fracture-- Производство: США
Год выпуска: 2013 г.
Жанр: Ужасы, триллер
Продолжительность: 01:30:59
Мировая премьера: 13 мая 2014
Перевод: Любительский (двухголосый, закадровый) [DeadSno & den904]-Режиссер: Энтони Дж. Рикерт-Эпстин / Anthony J. Rickert-Epstein-В ролях: Тайлер Мэйн, Мьюз Уотсон, Дерек Мирс, Лесли Истербрук, Рене Гирлингс, Алекс Саксон, Сьюзэн Анджело, Джелли Хоуи, Дэниэл Робак, Тодд Фармер-Описание: Сюжет фильма о том, как на глазах у своего сына отец убивает мать. Паренька берет в опеку родной дядя с женой и они вместе уезжают жить к дедушке, пытаясь наладить новый быт. Но все не так просто дедушка не совсем вменяем и здесь же появляется призрак его брата убийцы. Призрак хочет уничтожить всех членов семьи.- -Качество видео: HDRip
Контейнер: AVI
Видео кодек: XviD
Аудио кодек: MP3
Видео: 688x288, 23,976 fps, 1006 kbps avg, 0.212 bit/pixel
Аудио: 48 kHz, MPEG Layer 3, 2 ch, ~128.00 kbps avg
Cубтитры: отсутствуют-

Media Info

Общее
Полное имя : C:\Users\Ромик\Pictures\Открытый перелом\Otkrytyi.Perelom,2013.HDRip.745Mb.avi
Формат : AVI
Формат/Информация : Audio Video Interleave
Размер файла : 744 Мбайт
Продолжительность : 1 ч. 30 м.
Общий поток : 1143 Кбит/сек
Название фильма : Otkrytyi.Perelom,2013.HDRip.745Mb.[pirat.ca]
Программа кодирования : VirtualDubMod 1.5.10.2 (build 2540/release)
Примечание : http://pirat.ca
Видео
Идентификатор : 0
Формат : MPEG-4 Visual
Профиль формата : Advanced Simple@L5
Параметр BVOP формата : 2
Параметр QPel формата : Нет
Параметр GMC формата : Без точки перехода
Параметр матрицы формата : Default (MPEG)
Идентификатор кодека : XVID
Идентификатор кодека/Подсказка : XviD
Продолжительность : 1 ч. 30 м.
Битрейт : 1006 Кбит/сек
Ширина : 688 пикселей
Высота : 288 пикселей
Соотношение сторон : 2,40:1
Частота кадров : 23,976 кадра/сек
Цветовое пространство : YUV
Субдискретизация насыщенности : 4:2:0
Битовая глубина : 8 бит
Тип развёртки : Прогрессивная
Метод сжатия : С потерями
Бит/(Пиксели*Кадры) : 0.212
Размер потока : 655 Мбайт (88%)
Библиотека кодирования : XviD 1.2.0.dev47 (UTC 2006-11-01)
Аудио
Идентификатор : 1
Формат : MPEG Audio
Версия формата : Version 1
Профиль формата : Layer 3
Идентификатор кодека : 55
Идентификатор кодека/Подсказка : MP3
Продолжительность : 1 ч. 30 м.
Вид битрейта : Постоянный
Битрейт : 128 Кбит/сек
Каналы : 2 канала
Частота : 48,0 КГц
Метод сжатия : С потерями
Размер потока : 83,3 Мбайт (11%)
Выравнивание : Соединение по промежуткам
Продолжительность промежутка : 42 мс. (1,00 видеокадр)
Время предзагрузки промежутка : 504 мс.
Библиотека кодирования : LAMELAME_MAJOR_VERSI
-

Скриншоты

-




Показать сообщения:    

Текущее время: 07-Дек 21:34

Часовой пояс: UTC + 11


Вы не можете начинать темы
Вы не можете отвечать на сообщения
Вы не можете редактировать свои сообщения
Вы не можете удалять свои сообщения
Вы не можете голосовать в опросах
Вы не можете прикреплять файлы к сообщениям
Вы не можете скачивать файлы

Сайт не предоставляет электронные версии произведений, а занимается лишь коллекционированием и каталогизацией ссылок, присылаемых и публикуемых на форуме нашими читателями. Если вы являетесь правообладателем какого-либо представленного материала и не желаете, чтобы ссылка на него находилась в нашем каталоге, свяжитесь с нами, и мы незамедлительно удалим ее. Файлы для обмена на трекере предоставлены пользователями сайта, и администрация не несет ответственности за их содержание. Просьба не заливать файлы, защищенные авторскими правами, а также файлы нелегального содержания!