+100


Топ за 24 часа
 
 

[Цитировать]

- Ужин / The Dinner (2017) BDRip [H.264]-Производство: США, Blackbird
Жанр: Триллер, Драма, Криминал
Режиссер: Орен Муверман
Продюсер: Лоуренс Ингли, Джулия Лебедев, Эдди Вайзман
Актеры: Ричард Гир, Лора Линни, Стив Кугэн, Ребекка Холл, Хлоя Севиньи, Чарли Пламмер, Эдеперо Одуйе, Майкл Чернус, Джоэль Биссоннет
Описание:
Один вечер в ресторане. Две семьи за столом: будущий премьер-министр Стэн Ломан и его брат Пол с женами. Изысканный ужин превращается в поле битвы, а судьба их детей — в разменную монету. Как далеко способен зайти отец, чтобы защитить сына, совершившего преступление?

Возраст: 18+ (зрителям, достигшим 18 лет. запрещено для детей)
Рейтинг MPAA: R (лицам до 17 лет обязательно присутствие взрослого)
Дата мировой премьеры: 10 февраля 2017
Дата российской премьеры: 9 ноября 2017, «ПРОвзгляд», «НД Плэй»
Дата выхода DVD/Blu-ray релиза: 15 января 2018, «НД Плэй»
Продолжительность: 02:00:26
Качество видео: BDRip
Перевод: Дублированный (iTunes)
Субтитры: Английские
Видео: AVC/H.264, 1024x552, ~2236 Kbps
Аудио 1: AC3, 6 ch, 384 Kbps - Русский
Аудио 2: AC3, 6 ch, 448 Kbps - Английский

MediaInfo

The.Dinner.2017.BDRip.AVC.mkv
Формат : Matroska
Версия формата : Version 2
Размер файла : 2,58 Гбайт
Продолжительность : 2 ч. 0 м.
Общий поток : 3068 Кбит/сек
Название фильма : The Dinner 2017 from ExKinoRay
Дата кодирования : UTC 2017-12-08 12:07:12
Программа кодирования : mkvmerge v5.6.0 ('Kenya Kane') built on May 27 2012 16:44:04
Библиотека кодирования : libebml v1.2.3 + libmatroska v1.3.0
Видео
Идентификатор : 1
Формат : AVC
Формат/Информация : Advanced Video Codec
Профиль формата : High@L4.1
Настройки формата : CABAC / 12 Ref Frames
Параметр CABAC формата : Да
Параметр RefFrames формата : 12 кадров
Идентификатор кодека : V_MPEG4/ISO/AVC
Продолжительность : 2 ч. 0 м.
Битрейт : 2236 Кбит/сек
Ширина : 1024 пикселя
Высота : 552 пикселя
Соотношение сторон : 1,85:1
Режим частоты кадров : Постоянный
Частота кадров : 23,976 (23976/1000) кадра/сек
Цветовое пространство : YUV
Субдискретизация насыщенности : 4:2:0
Битовая глубина : 8 бит
Тип развёртки : Прогрессивная
Бит/(Пиксели*Кадры) : 0.165
Размер потока : 1,83 Гбайт (71%)
Заголовок : Enigma
Библиотека кодирования : x264 core 152 r2851 ba24899
Настройки программы : cabac=1 / ref=12 / deblock=1:-2:-3 / analyse=0x3:0x113 / me=umh / subme=10 / psy=1 / psy_rd=1.00:0.05 / mixed_ref=1 / me_range=32 / chroma_me=1 / trellis=2 / 8x8dct=1 / cqm=0 / deadzone=21,11 / fast_pskip=0 / chroma_qp_offset=-3 / threads=12 / lookahead_threads=3 / sliced_threads=0 / nr=0 / decimate=0 / interlaced=0 / bluray_compat=0 / constrained_intra=0 / bframes=11 / b_pyramid=2 / b_adapt=2 / b_bias=0 / direct=3 / weightb=1 / open_gop=0 / weightp=2 / keyint=240 / keyint_min=23 / scenecut=40 / intra_refresh=0 / rc_lookahead=40 / rc=2pass / mbtree=0 / bitrate=2236 / ratetol=1.0 / qcomp=0.60 / qpmin=0 / qpmax=51 / qpstep=4 / cplxblur=20.0 / qblur=0.5 / vbv_maxrate=50000 / vbv_bufsize=62500 / nal_hrd=none / filler=0 / ip_ratio=1.40 / pb_ratio=1.30 / aq=3:0.90
Язык : English
Default : Да
Forced : Нет
Цветовой диапазон : Limited
Основные цвета : BT.709
Характеристики трансфера : BT.709
Коэффициенты матрицы : BT.709
Аудио #1
Идентификатор : 2
Формат : AC-3
Формат/Информация : Audio Coding 3
Идентификатор кодека : A_AC3
Продолжительность : 2 ч. 0 м.
Вид битрейта : Постоянный
Битрейт : 384 Кбит/сек
Каналы : 6 каналов
Расположение каналов : Front: L C R, Side: L R, LFE
Частота : 48,0 КГц
Частота кадров : 31,250 кадров/сек (1536 SPF)
Битовая глубина : 16 бит
Метод сжатия : С потерями
Размер потока : 331 Мбайт (13%)
Заголовок : iTunes
Язык : Russian
ServiceKind/String : Complete Main
Default : Да
Forced : Нет
Аудио #2
Идентификатор : 3
Формат : AC-3
Формат/Информация : Audio Coding 3
Идентификатор кодека : A_AC3
Продолжительность : 2 ч. 0 м.
Вид битрейта : Постоянный
Битрейт : 448 Кбит/сек
Каналы : 6 каналов
Расположение каналов : Front: L C R, Side: L R, LFE
Частота : 48,0 КГц
Частота кадров : 31,250 кадров/сек (1536 SPF)
Битовая глубина : 16 бит
Метод сжатия : С потерями
Размер потока : 386 Мбайт (15%)
Язык : English
ServiceKind/String : Complete Main
Default : Нет
Forced : Нет
Текст
Идентификатор : 4
Формат : UTF-8
Идентификатор кодека : S_TEXT/UTF8
Идентификатор кодека/Информация : UTF-8 Plain Text
Язык : English
Default : Нет
Forced : Нет
Меню
00:00:00.000 : en:00:00:00.000
00:10:47.814 : en:00:10:47.814
00:22:17.711 : en:00:22:17.711
00:30:58.607 : en:00:30:58.607
00:40:39.187 : en:00:40:39.187
00:50:19.225 : en:00:50:19.225
00:58:53.029 : en:00:58:53.029
01:10:22.218 : en:01:10:22.218
01:24:43.704 : en:01:24:43.704
01:37:09.073 : en:01:37:09.073
01:45:30.282 : en:01:45:30.282
01:54:20.854 : en:01:54:20.854
Скриншоты:




Показать сообщения:    

Текущее время: 20-Июн 23:57

Часовой пояс: UTC + 11


Вы не можете начинать темы
Вы не можете отвечать на сообщения
Вы не можете редактировать свои сообщения
Вы не можете удалять свои сообщения
Вы не можете голосовать в опросах
Вы не можете прикреплять файлы к сообщениям
Вы не можете скачивать файлы

Сайт не предоставляет электронные версии произведений, а занимается лишь коллекционированием и каталогизацией ссылок, присылаемых и публикуемых на форуме нашими читателями. Если вы являетесь правообладателем какого-либо представленного материала и не желаете, чтобы ссылка на него находилась в нашем каталоге, свяжитесь с нами, и мы незамедлительно удалим ее. Файлы для обмена на трекере предоставлены пользователями сайта, и администрация не несет ответственности за их содержание. Просьба не заливать файлы, защищенные авторскими правами, а также файлы нелегального содержания!