+100


 

[Цитировать]

-Krokus - Long Stick Goes Boom-
Страна: Switzerland
Жанр: Hard Rock
Год выпуска: 2014
Формат: FLAC (image + .cue)
Битрейт аудио: lossless
Продолжительность: 01:10:25
- -

треклист


01. Long Stick (07:23)
02. Hallelujah Rock 'n' Roll (03:47)
03. Go Baby Go (03:31)
04. AM Woman (03:59)
05. Tokyo Nights (05:17)
06. Fire (07:46)
07. Rock City / Better Than Sex / Dog Song (04:51)
08. Screaming In The Night (06:20)
09. Hellraiser (04:46)
10. Bedside Radio (03:37)
11. Easy Rocker (04:40)
12. Heatstrokes (04:49)
13. Live For The Action (04:20)
14. Hoodoo Woman (05:11)
- -

лог создания рипа

Exact Audio Copy V1.0 beta 3 from 29. August 2011
EAC extraction logfile from 14. May 2014, 10:22
Krokus / Long Stick Goes Boom
Used drive  : Optiarc DVD+-RW AD-7717H   Adapter: 0  ID: 0
Read mode               : Secure
Utilize accurate stream : Yes
Defeat audio cache      : Yes
Make use of C2 pointers : No
Read offset correction                      : 48
Overread into Lead-In and Lead-Out          : No
Fill up missing offset samples with silence : Yes
Delete leading and trailing silent blocks   : No
Null samples used in CRC calculations       : Yes
Used interface                              : Installed external ASPI interface
Used output format              : User Defined Encoder
Selected bitrate                : 768 kBit/s
Quality                         : High
Add ID3 tag                     : No
Command line compressor         : C:\Program Files (x86)\Exact Audio Copy\Flac\flac.exe
Additional command line options : -V -8 -T "Date=%year%" -T "Genre=%genre%" %source%
TOC of the extracted CD
Track |   Start  |  Length  | Start sector | End sector
---------------------------------------------------------
1  |  0:00.00 |  7:23.55 |         0    |    33279
2  |  7:23.55 |  3:47.57 |     33280    |    50361
3  | 11:11.37 |  3:31.45 |     50362    |    66231
4  | 14:43.07 |  3:59.35 |     66232    |    84191
5  | 18:42.42 |  5:17.17 |     84192    |   107983
6  | 23:59.59 |  7:46.15 |    107984    |   142948
7  | 31:45.74 |  4:51.67 |    142949    |   164840
8  | 36:37.66 |  6:20.69 |    164841    |   193409
9  | 42:58.60 |  4:46.35 |    193410    |   214894
10  | 47:45.20 |  3:37.22 |    214895    |   231191
11  | 51:22.42 |  4:40.61 |    231192    |   252252
12  | 56:03.28 |  4:49.34 |    252253    |   273961
13  | 60:52.62 |  4:20.68 |    273962    |   293529
14  | 65:13.55 |  5:11.46 |    293530    |   316900
Range status and errors
Selected range
Filename C:\0\Sket4er\Krokus - Long Stick Goes Boom 2014 [flac]\Krokus - Long Stick Goes Boom.wav
Peak level 96.2 %
Extraction speed 5.1 X
Range quality 99.9 %
Test CRC A9F4B083
Copy CRC A9F4B083
Copy OK
No errors occurred
AccurateRip summary
Track  1  not present in database
Track  2  not present in database
Track  3  not present in database
Track  4  not present in database
Track  5  not present in database
Track  6  not present in database
Track  7  not present in database
Track  8  not present in database
Track  9  not present in database
Track 10  not present in database
Track 11  not present in database
Track 12  not present in database
Track 13  not present in database
Track 14  not present in database
None of the tracks are present in the AccurateRip database
End of status report

содержание индексной карты *cue

REM GENRE "Hard Rock"
REM DATE 2014
REM DISCID D610810E
REM COMMENT "ExactAudioCopy v1.0b3"
PERFORMER "Krokus"
TITLE "Long Stick Goes Boom "
FILE "Krokus - Long Stick Goes Boom.flac" WAVE
TRACK 01 AUDIO
TITLE "Long Stick "
PERFORMER "Krokus"
INDEX 01 00:00:00
TRACK 02 AUDIO
TITLE "Hallelujah Rock 'n' Roll"
PERFORMER "Krokus"
INDEX 01 07:23:55
TRACK 03 AUDIO
TITLE "Go Baby Go"
PERFORMER "Krokus"
INDEX 01 11:11:37
TRACK 04 AUDIO
TITLE "AM Woman "
PERFORMER "Krokus"
INDEX 01 14:43:07
TRACK 05 AUDIO
TITLE "Tokyo Nights"
PERFORMER "Krokus"
INDEX 01 18:42:42
TRACK 06 AUDIO
TITLE "Fire"
PERFORMER "Krokus"
INDEX 01 23:59:59
TRACK 07 AUDIO
TITLE "Rock City / Better Than Sex / Dog Song"
PERFORMER "Krokus"
INDEX 01 31:45:74
TRACK 08 AUDIO
TITLE "Screaming In The Night "
PERFORMER "Krokus"
INDEX 01 36:37:66
TRACK 09 AUDIO
TITLE "Hellraiser "
PERFORMER "Krokus"
INDEX 01 42:58:60
TRACK 10 AUDIO
TITLE "Bedside Radio "
PERFORMER "Krokus"
INDEX 01 47:45:20
TRACK 11 AUDIO
TITLE "Easy Rocker "
PERFORMER "Krokus"
INDEX 01 51:22:42
TRACK 12 AUDIO
TITLE "Heatstrokes "
PERFORMER "Krokus"
INDEX 01 56:03:28
TRACK 13 AUDIO
TITLE "Live For The Action "
PERFORMER "Krokus"
INDEX 01 60:52:62
TRACK 14 AUDIO
TITLE "Hoodoo Woman "
PERFORMER "Krokus"
INDEX 01 65:13:55




Показать сообщения:    

Текущее время: 04-Дек 10:54

Часовой пояс: UTC + 11


Вы не можете начинать темы
Вы не можете отвечать на сообщения
Вы не можете редактировать свои сообщения
Вы не можете удалять свои сообщения
Вы не можете голосовать в опросах
Вы не можете прикреплять файлы к сообщениям
Вы не можете скачивать файлы

Сайт не предоставляет электронные версии произведений, а занимается лишь коллекционированием и каталогизацией ссылок, присылаемых и публикуемых на форуме нашими читателями. Если вы являетесь правообладателем какого-либо представленного материала и не желаете, чтобы ссылка на него находилась в нашем каталоге, свяжитесь с нами, и мы незамедлительно удалим ее. Файлы для обмена на трекере предоставлены пользователями сайта, и администрация не несет ответственности за их содержание. Просьба не заливать файлы, защищенные авторскими правами, а также файлы нелегального содержания!