+100


Топ за 24 часа
 
 

[Цитировать]

- Сделано в Америке / American Made (2017) BDRip -Производство: США / Cross Creek Pictures, Hercules Film Fund, Imagine Entertainment
Жанр: боевик, триллер, драма, комедия
Режиссер: Даг Лайман
Актеры: Том Круз, Донал Глисон, Сара Райт, Джесси Племонс, Калеб Лэндри Джонс, Лола Кёрк, Джейма Мейс, Алехандро Эдда, Бенито Мартинес, Э. Роджер Митчелл
Описание:
Он был самым юным пилотом Боинга 747 в США, а уже через несколько лет стал одним из богатейших людей в Америке. Его стиль жизни был столь же экстремальным, как и его бизнес. Закрытые приемы, роскошные блондинки, крутые тачки и рисковые сделки. Он обладал талантом делать деньги из воздуха.

Возраст: 18+ (зрителям, достигшим 18 лет. запрещено для детей)
Рейтинг MPAA: R (лицам до 17 лет обязательно присутствие взрослого)
Дата мировой премьеры: 18.08.2017
Дата российской премьеры: 02.10.2017
Продолжительность: 01:54:58
Качество видео: HDRip
Перевод: Дублированный (iTunes)
Субтитры: отсутствуют
Видео: Xvid, 720x384, ~1771 Kbps
Аудио #1: AC-3, 48.0 KHz, 6 ch, 384 Kbps | Русский
Аудио #2: AC-3, 48.0 KHz, 6 ch, 384 Kbps | Английский

MediaInfo

Общее
Полное имя : D:\American.Made.2017.D.HDRip.NNM-CLUB.avi
Формат : AVI
Формат/Информация : Audio Video Interleave
Профиль формата : OpenDML
Размер файла : 2,05 Гбайт
Продолжительность : 1 ч. 54 м.
Общий поток : 2557 Кбит/сек
Название фильма : Cd3L4H0.B.4m3P1k3.2017.D.HDRip.21OOMB
Программа кодирования : VirtualDubMod 1.5.10.2 (build 2540/release)
Формат оригинала/Имя : Movie
Видео
Идентификатор : 0
Формат : MPEG-4 Visual
Профиль формата : Advanced Simple@L5
Параметр BVOP формата : 2
Параметр QPel формата : Нет
Параметр GMC формата : Без точки перехода
Параметр матрицы формата : Default (MPEG)
Идентификатор кодека : XVID
Идентификатор кодека/Подсказка : XviD
Продолжительность : 1 ч. 54 м.
Битрейт : 1771 Кбит/сек
Ширина : 720 пикселей
Высота : 384 пикселя
Соотношение сторон : 1,85:1
Частота кадров : 23,976 (24000/1001) кадра/сек
Цветовое пространство : YUV
Субдискретизация насыщенности : 4:2:0
Битовая глубина : 8 бит
Тип развёртки : Прогрессивная
Метод сжатия : С потерями
Бит/(Пиксели*Кадры) : 0.267
Размер потока : 1,42 Гбайт (69%)
Библиотека кодирования : XviD 1.2.1 (UTC 2008-12-04)
Аудио #1
Идентификатор : 1
Формат : AC-3
Формат/Информация : Audio Coding 3
Расширение режима : CM (complete main)
Параметр Endianness формата : Big
Идентификатор кодека : 2000
Продолжительность : 1 ч. 54 м.
Вид битрейта : Постоянный
Битрейт : 384 Кбит/сек
Каналы : 6 каналов
Расположение каналов : Front: L C R, Side: L R, LFE
Частота : 48,0 КГц
Частота кадров : 31,250 кадров/сек (1536 spf)
Метод сжатия : С потерями
Размер потока : 316 Мбайт (15%)
Выравнивание : Разделение по промежуткам
Продолжительность промежутка : 42 мс. (1,00 видеокадр)
Время предзагрузки промежутка : 500 мс.
Аудио #2
Идентификатор : 2
Формат : AC-3
Формат/Информация : Audio Coding 3
Расширение режима : CM (complete main)
Параметр Endianness формата : Big
Идентификатор кодека : 2000
Продолжительность : 1 ч. 54 м.
Вид битрейта : Постоянный
Битрейт : 384 Кбит/сек
Каналы : 6 каналов
Расположение каналов : Front: L C R, Side: L R, LFE
Частота : 48,0 КГц
Частота кадров : 31,250 кадров/сек (1536 spf)
Метод сжатия : С потерями
Размер потока : 316 Мбайт (15%)
Выравнивание : Разделение по промежуткам
Продолжительность промежутка : 42 мс. (1,00 видеокадр)
Время предзагрузки промежутка : 500 мс.
Скриншоты:




Показать сообщения:    

Текущее время: 17-Янв 10:31

Часовой пояс: UTC + 11


Вы не можете начинать темы
Вы не можете отвечать на сообщения
Вы не можете редактировать свои сообщения
Вы не можете удалять свои сообщения
Вы не можете голосовать в опросах
Вы не можете прикреплять файлы к сообщениям
Вы не можете скачивать файлы

Сайт не предоставляет электронные версии произведений, а занимается лишь коллекционированием и каталогизацией ссылок, присылаемых и публикуемых на форуме нашими читателями. Если вы являетесь правообладателем какого-либо представленного материала и не желаете, чтобы ссылка на него находилась в нашем каталоге, свяжитесь с нами, и мы незамедлительно удалим ее. Файлы для обмена на трекере предоставлены пользователями сайта, и администрация не несет ответственности за их содержание. Просьба не заливать файлы, защищенные авторскими правами, а также файлы нелегального содержания!