+100


 

[Цитировать]

-Slade - Hit Collection- Страна: UK
Жанр: Glam Rock
Год выпуска: 2014
Формат: FLAC (image + .cue)
Битрейт аудио: lossless
Продолжительность: 01:11:01
- -

треклист

01. Hey Ho Wish You Well (05:21)
02. Get Down And Get With It (03:47)
03. Little Sheila (03:57)
04. Coz I Luv You (03:31)
05. Memory (03:44)
06. Look Wot You Dun (02:49)
07. Mama Weer All Crazee Now (03:42)
08. Gudbuy T'Jane (03:30)
09. 7 Year Bitch (04:16)
10. Won't You Rock With Me (03:47)
11. Cum On Feel The Noize (04:27)
12. Ooh La La In L.A. (03:51)
13. Everyday (03:07)
14. Far Far Away (03:34)
15. How Does It Feel (05:52)
16. My Oh My (04:09)
17. Run Run Away (03:42)
18. Radio Wall Of Sound (03:45)
- -

лог создания рипа

Exact Audio Copy V1.0 beta 3 from 29. August 2011
Отчёт EAC об извлечении, выполненном 16. апреля 2014, 10:18
Slade / Hit Collection
Дисковод: HL-DT-STDVDRAM GH20NS10   Adapter: 0  ID: 1
Режим чтения                 : Достоверность
Использование точного потока : Да
Отключение кэша аудио        : Да
Использование указателей C2  : Нет
Коррекция смещения при чтении                     : 667
Способность читать области Lead-in и Lead-out     : Нет
Заполнение пропущенных сэмплов тишиной            : Да
Удаление блоков с тишиной в начале и конце        : Нет
При вычислениях CRC использовались нулевые сэмплы : Да
Интерфейс                                         : Встроенный Win32-интерфейс для Win NT/2000
Выходной формат : Внутренние WAV-операции
Формат сэмплов  : 44.100 Гц; 16 бит; стерео
TOC извлечённого CD
Трек |   Старт  | Длительность | Начальный сектор | Конечный сектор
---------------------------------------------------------------------
1  |  0:00.00 |    5:21.57   |           0      |      24131
2  |  5:21.57 |    3:47.36   |       24132      |      41192
3  |  9:09.18 |    3:57.43   |       41193      |      59010
4  | 13:06.61 |    3:31.26   |       59011      |      74861
5  | 16:38.12 |    3:44.37   |       74862      |      91698
6  | 20:22.49 |    2:49.68   |       91699      |     104441
7  | 23:12.42 |    3:42.39   |      104442      |     121130
8  | 26:55.06 |    3:30.31   |      121131      |     136911
9  | 30:25.37 |    4:16.35   |      136912      |     156146
10  | 34:41.72 |    3:47.30   |      156147      |     173201
11  | 38:29.27 |    4:27.04   |      173202      |     193230
12  | 42:56.31 |    3:51.33   |      193231      |     210588
13  | 46:47.64 |    3:07.49   |      210589      |     224662
14  | 49:55.38 |    3:34.64   |      224663      |     240776
15  | 53:30.27 |    5:52.59   |      240777      |     267235
16  | 59:23.11 |    4:09.68   |      267236      |     285978
17  | 63:33.04 |    3:42.23   |      285979      |     302651
18  | 67:15.27 |    3:45.61   |      302652      |     319587
Характеристики диапазона извлечения и сообщения об ошибках
Выбранный диапазон
Имя файла C:\kulick\Slade - Hit Collection.wav
Пиковый уровень 100.0 %
Скорость извлечения 7.8 X
Качество диапазона 100.0 %
CRC теста E96D72B1
CRC копии E96D72B1
Копирование... OK
Ошибок не произошло
AccurateRip: сводка
Трек  1  отсутствует в базе данных
Трек  2  отсутствует в базе данных
Трек  3  отсутствует в базе данных
Трек  4  отсутствует в базе данных
Трек  5  отсутствует в базе данных
Трек  6  отсутствует в базе данных
Трек  7  отсутствует в базе данных
Трек  8  отсутствует в базе данных
Трек  9  отсутствует в базе данных
Трек 10  отсутствует в базе данных
Трек 11  отсутствует в базе данных
Трек 12  отсутствует в базе данных
Трек 13  отсутствует в базе данных
Трек 14  отсутствует в базе данных
Трек 15  отсутствует в базе данных
Трек 16  отсутствует в базе данных
Трек 17  отсутствует в базе данных
Трек 18  отсутствует в базе данных
Ни одного трека нет в базе AccurateRip
Конец отчёта
---- CUETools DB Plugin V2.1.5
[CTDB TOCID: cTjvC1xALDQUZ81HQ1LBQRJ.wPI-] disk not present in database
Submit result: cTjvC1xALDQUZ81HQ1LBQRJ.wPI- has been uploaded

содержание индексной карты *cue

REM GENRE "Glam Rock"
REM DATE 2014
REM DISCID FA10A512
REM COMMENT "ExactAudioCopy v1.0b3"
PERFORMER "Slade"
TITLE "Hit Collection"
FILE "Slade - Hit Collection.flac" WAVE
TRACK 01 AUDIO
TITLE "Hey Ho Wish You Well"
PERFORMER "Slade"
INDEX 01 00:00:00
TRACK 02 AUDIO
TITLE "Get Down And Get With It"
PERFORMER "Slade"
INDEX 01 05:21:57
TRACK 03 AUDIO
TITLE "Little Sheila"
PERFORMER "Slade"
INDEX 01 09:09:18
TRACK 04 AUDIO
TITLE "Coz I Luv You"
PERFORMER "Slade"
INDEX 01 13:06:61
TRACK 05 AUDIO
TITLE "Memory"
PERFORMER "Slade"
INDEX 01 16:38:12
TRACK 06 AUDIO
TITLE "Look Wot You Dun"
PERFORMER "Slade"
INDEX 01 20:22:49
TRACK 07 AUDIO
TITLE "Mama Weer All Crazee Now"
PERFORMER "Slade"
INDEX 01 23:12:42
TRACK 08 AUDIO
TITLE "Gudbuy T'Jane"
PERFORMER "Slade"
INDEX 01 26:55:06
TRACK 09 AUDIO
TITLE "7 Year Bitch"
PERFORMER "Slade"
INDEX 01 30:25:37
TRACK 10 AUDIO
TITLE "Won't You Rock With Me"
PERFORMER "Slade"
INDEX 01 34:41:72
TRACK 11 AUDIO
TITLE "Cum On Feel The Noize"
PERFORMER "Slade"
INDEX 01 38:29:27
TRACK 12 AUDIO
TITLE "Ooh La La In L.A."
PERFORMER "Slade"
INDEX 01 42:56:31
TRACK 13 AUDIO
TITLE "Everyday"
PERFORMER "Slade"
INDEX 01 46:47:64
TRACK 14 AUDIO
TITLE "Far Far Away"
PERFORMER "Slade"
INDEX 01 49:55:38
TRACK 15 AUDIO
TITLE "How Does It Feel"
PERFORMER "Slade"
INDEX 01 53:30:27
TRACK 16 AUDIO
TITLE "My Oh My"
PERFORMER "Slade"
INDEX 01 59:23:11
TRACK 17 AUDIO
TITLE "Run Run Away"
PERFORMER "Slade"
INDEX 01 63:33:04
TRACK 18 AUDIO
TITLE "Radio Wall Of Sound"
PERFORMER "Slade"
INDEX 01 67:15:27




Показать сообщения:    

Текущее время: 03-Дек 17:48

Часовой пояс: UTC + 11


Вы не можете начинать темы
Вы не можете отвечать на сообщения
Вы не можете редактировать свои сообщения
Вы не можете удалять свои сообщения
Вы не можете голосовать в опросах
Вы не можете прикреплять файлы к сообщениям
Вы не можете скачивать файлы

Сайт не предоставляет электронные версии произведений, а занимается лишь коллекционированием и каталогизацией ссылок, присылаемых и публикуемых на форуме нашими читателями. Если вы являетесь правообладателем какого-либо представленного материала и не желаете, чтобы ссылка на него находилась в нашем каталоге, свяжитесь с нами, и мы незамедлительно удалим ее. Файлы для обмена на трекере предоставлены пользователями сайта, и администрация не несет ответственности за их содержание. Просьба не заливать файлы, защищенные авторскими правами, а также файлы нелегального содержания!