+100


Топ за 24 часа
 
 

[Цитировать]

-Невероятная жизнь Уолтера Митти / The Secret Life of Walter Mitty-- Год выпуска: 2013
Производство: США, 20th Century Fox
Жанр: фэнтези, драма, комедия, приключения
Продолжительность: 01:54:35-Перевод: Авторский (одноголосый, закадровый) Живов-Субтитры: отсутствуют
Режиссер: Бен Стиллер / Ben Stiller
В ролях: Бен Стиллер, Кристен Уиг, Джон Дэйли, Кэтрин Хан, Теренс Берни Хайнс, Адам Скотт, Пол Фицджералд, Грэйс Рекс, Алекс Анфанджер, Аманда Нафтон--Описание: Кто сказал, что в сердце маленького человека не могут жить великие мечты? Даже скромному и незаметному служащему хочется иногда совершить пусть безумные, но геройские поступки, поверить в свою силу и мужество. Почему всех спасать должны исключительно супермены?-- - -Качество видео: HDRip
Контейнер: AVI
Видео кодек: XviD
Аудио кодек: AC3
Видео: 720x304 (2.37:1), 23.976 fps, XviD build 73 ~1954 kbps avg, 0.37 bit/pixel-Аудио : 48 kHz, AC3 Dolby Digital, 3/2 (L,C,R,l,r) + LFE ch, ~448 kbps - Юрий Живов-

Доп. информация

Автор рипа:
Исходник BDRip 1080р из собственной коллекции.
Дорога Живова сделана с раздачи Genesis (кинозал) Спасибо ему.
За первичный исходник и продвижение проекта спасибо ultrajeka (E-180)-- За перевод Ю. Живова спасибо: пользователям
e180 - masta, jorn2, Nadoelo, Savely, Skoped, carnivale, Henry_Morgan, dir, Эдуард, kabukiman, Slimka, Диммон;
hdtracker - ultrajeka, -Джосс-, Xerman13, Role, ZeRoNe, zeleniydzhan, KpucTo161, vadamk, Luka69, DrCrane.
- Дорожка с озвучкой Ю. Живова изготовлена Skazhutin, за что ему огромное спасибо.

кванты

I frames: 1680 frames, size = 51887/87170467, quants = 2 / 2.00 / 2
P frames: 83033 frames, size = 13648/1133246529, quants = 2 / 2.00 / 2
B frames: 80119 frames, size = 5733/459339749, quants = 2 / 2.00 / 2

Media Info

General
Complete name : G:\На пиратку\! не розданные\The Secret Life of Walter Mitty.2013.HDRip.Jivov_byGross.avi
Format : AVI
Format/Info : Audio Video Interleave
File size : 1.93 GiB
Duration : 1h 54mn
Overall bit rate : 2 412 Kbps
Writing application : VirtualDubMod 1.5.10.3 | www.virtualdub-fr.org || (build 2550/release)
Writing library : VirtualDubMod build 2550/release
Video
ID : 0
Format : MPEG-4 Visual
Format profile : Advanced Simple@L5
Format settings, BVOP : Yes
Format settings, QPel : No
Format settings, GMC : No warppoints
Format settings, Matrix : Custom
Codec ID : XVID
Codec ID/Hint : XviD
Duration : 1h 54mn
Bit rate : 1 955 Kbps
Width : 720 pixels
Height : 304 pixels
Display aspect ratio : 2.35:1
Frame rate : 23.976 fps
Color space : YUV
Chroma subsampling : 4:2:0
Bit depth : 8 bits
Scan type : Progressive
Compression mode : Lossy
Bits/(Pixel*Frame) : 0.372
Stream size : 1.56 GiB (81%)
Writing library : XviD 73
Audio
ID : 1
Format : AC-3
Format/Info : Audio Coding 3
Mode extension : CM (complete main)
Format settings, Endianness : Big
Codec ID : 2000
Duration : 1h 54mn
Bit rate mode : Constant
Bit rate : 448 Kbps
Channel count : 6 channels
Channel positions : Front: L C R, Side: L R, LFE
Sampling rate : 48.0 KHz
Bit depth : 16 bits
Compression mode : Lossy
Stream size : 367 MiB (19%)
Alignment : Split accross interleaves
Interleave, duration : 42 ms (1.00 video frame)
Interleave, preload duration : 500 ms

Скриншоты

-




Показать сообщения:    

Текущее время: 11-Дек 01:38

Часовой пояс: UTC + 11


Вы не можете начинать темы
Вы не можете отвечать на сообщения
Вы не можете редактировать свои сообщения
Вы не можете удалять свои сообщения
Вы не можете голосовать в опросах
Вы не можете прикреплять файлы к сообщениям
Вы не можете скачивать файлы

Сайт не предоставляет электронные версии произведений, а занимается лишь коллекционированием и каталогизацией ссылок, присылаемых и публикуемых на форуме нашими читателями. Если вы являетесь правообладателем какого-либо представленного материала и не желаете, чтобы ссылка на него находилась в нашем каталоге, свяжитесь с нами, и мы незамедлительно удалим ее. Файлы для обмена на трекере предоставлены пользователями сайта, и администрация не несет ответственности за их содержание. Просьба не заливать файлы, защищенные авторскими правами, а также файлы нелегального содержания!