+100


Топ за 24 часа
 
 

[Цитировать]

-Кредо убийцы / Assassin's Creed (2016) UHD BDRemux [H.265/2160p] [4K, HDR, 10-bit]«Welcome to the Spanish Inquisition»-Производство: Великобритания, Франция, Гонконг, США, Тайвань, Мальта, Канада / Alpha Pictures, CatchPlay
Жанр: фантастика, фэнтези, боевик, приключения
Режиссер: Джастин Курзель
Продюсер: Маркус Барметтлер, Жан-Жюльен Баронне, Кристин Бёрджесс-Кемар
Актеры: Майкл Фассбендер, Марион Котийяр, Джереми Айронс, Брендан Глисон, Шарлотта Рэмплинг, Майкл Кеннет Уильямс, Дени Меноше, Ариана Лабед, Халид Абдалла, Эсси Дэвис
Описание:
Благодаря революционным технологиям, позволяющим вызвать в памяти воспоминания прежних поколений, Каллум Линч проживает приключения своего предка Агилара в Испании 15-го века. Каллум узнает, что является потомком членов загадочного тайного общества ассасинов. Накопив невероятные знания и навыки, он вступает в противостояние с могущественной и жестокой организацией тамплиеров в наши дни.

Возраст: 16+ (зрителям, достигшим 16 лет)
Рейтинг MPAA: PG-13 (детям до 13 лет просмотр нежелателен)

Релиз от: JATO, BLUEBIRD
Продолжительность: 01:55:30
Перевод: Дублированный (Лицензия BD CEE), Авторский (одноголосый, закадровый) (Ю. Живов)
Субтитры: Русские, Украинские, Английские
Видео: HEVC/H.265, 3840x2160p, (16:9), 34.9 Mb/s, 23.976 fps
Аудио: DTS, 6 ch, 768 kbps - Русский
Аудио: AC3, 6 ch, 448 kbps - Украинский
Аудио: DTS-HD MA, 8 ch, 5442 kbps - Русский, Ю. Живов
Аудио: TrueHD-Atmos, 8 ch, 5896 kbps - Английский

MediaInfo

General
Unique ID : 170301507828999389020809685194450129795 (0x801EE09A0617F3EE9BC33AB5BF07D383)
Complete name : ASSASSINS_CREED_BD_UHD_HDR_REMUX-BLUEBIRD.mkv
Format : Matroska
Format version : Version 4 / Version 2
File size : 38.4 GiB
Duration : 1 h 55 min
Overall bit rate mode : Variable
Overall bit rate : 47.6 Mb/s
Movie name : ASSASSINS_CREED_BD_UHD_HDR_REMUX-BLUEBIRD
Encoded date : UTC 2017-10-25 12:14:19
Writing application : mkvmerge v16.0.0 ('Protest') 64-bit
Writing library : libebml v1.3.5 + libmatroska v1.4.8
Cover : Yes
Attachments : cover4.png
Video
ID : 1
Format : HEVC
Format/Info : High Efficiency Video Coding
Format profile : Main 10@L5.1@High
Codec ID : V_MPEGH/ISO/HEVC
Duration : 1 h 55 min
Bit rate : 34.9 Mb/s
Width : 3 840 pixels
Height : 2 160 pixels
Display aspect ratio : 16:9
Frame rate mode : Constant
Frame rate : 23.976 (24000/1001) FPS
Color space : YUV
Chroma subsampling : 4:2:0 (Type 2)
Bit depth : 10 bits
Bits/(Pixel*Frame) : 0.176
Stream size : 28.2 GiB (73%)
Title : ASSASSINS_CREED_BD_UHD_HDR_REMUX-BLUEBIRD
Writing library : ATEME Titan File 3.7.8 (4.7.8.0)
Default : Yes
Forced : No
Color range : Limited
Color primaries : BT.2020
Transfer characteristics : SMPTE ST 2084
Matrix coefficients : BT.2020 non-constant
Mastering display color primaries : R: x=0.680000 y=0.320000, G: x=0.265000 y=0.690000, B: x=0.150000 y=0.060000, White point: x=0.312700 y=0.329000
Mastering display luminance : min: 0.0000 cd/m2, max: 1000.0000 cd/m2
Audio #1
ID : 2
Format : DTS
Format/Info : Digital Theater Systems
Mode : 16
Format settings, Endianness : Big
Codec ID : A_DTS
Duration : 1 h 55 min
Bit rate mode : Constant
Bit rate : 768 kb/s
Channel(s) : 6 channels
Channel positions : Front: L C R, Side: L R, LFE
Sampling rate : 48.0 kHz
Frame rate : 93.750 FPS (512 SPF)
Bit depth : 24 bits
Compression mode : Lossy
Stream size : 635 MiB (2%)
Title : [DUB] DTS 5.1 @ 768 kbps
Language : Russian
Default : Yes
Forced : No
Audio #2
ID : 3
Format : AC-3
Format/Info : Audio Coding 3
Format settings, Endianness : Big
Codec ID : A_AC3
Duration : 1 h 55 min
Bit rate mode : Constant
Bit rate : 448 kb/s
Channel(s) : 6 channels
Channel positions : Front: L C R, Side: L R, LFE
Sampling rate : 48.0 kHz
Frame rate : 31.250 FPS (1536 SPF)
Bit depth : 16 bits
Compression mode : Lossy
Stream size : 370 MiB (1%)
Title : [DUB] DD 5.1 @ 448 kbps
Language : Ukrainian
Service kind : Complete Main
Default : No
Forced : No
Audio #3
ID : 4
Format : DTS
Format/Info : Digital Theater Systems
Format profile : MA / Core
Mode : 16
Format settings, Endianness : Big
Codec ID : A_DTS
Duration : 1 h 55 min
Bit rate mode : Variable / Constant
Bit rate : 5 442 kb/s / 1 509 kb/s
Channel(s) : 8 channels / 6 channels
Channel positions : Front: L C R, Side: L R, Back: L R, LFE / Front: L C R, Side: L R, LFE
Sampling rate : 48.0 kHz
Frame rate : 93.750 FPS (512 SPF)
Bit depth : 24 bits
Compression mode : Lossless / Lossy
Stream size : 4.39 GiB (11%)
Title : [VO] DTS-HD MA 7.1 @ 5443 kbps (J. Zhyvov)
Language : Russian
Default : No
Forced : No
Audio #4
ID : 5
Format : TrueHD
Format profile : TrueHD+Atmos / TrueHD
Codec ID : A_TRUEHD
Duration : 1 h 55 min
Bit rate mode : Variable
Bit rate : 5 896 kb/s
Maximum bit rate : 9 129 kb/s
Channel(s) : Object Based / 8 channels
Channel positions : Object Based / Front: L C R, Side: L R, Back: L R, LFE
Sampling rate : / 48.0 kHz
Frame rate : 1 200.000 FPS (40 SPF)
Compression mode : Lossless
Delay relative to video : 32 ms
Stream size : 4.76 GiB (12%)
Title : [ORIGINAL] ATMOS 7.1 @ 6536 kbps
Language : English
Default : No
Forced : No
Text #1
ID : 6
Format : PGS
Codec ID : S_HDMV/PGS
Codec ID/Info : Picture based subtitle format used on BDs/HD-DVDs
Duration : 1 h 54 min
Bit rate : 16.6 kb/s
Count of elements : 1370
Stream size : 13.5 MiB (0%)
Title : Full-length
Language : Russian
Default : No
Forced : No
Text #2
ID : 7
Format : PGS
Codec ID : S_HDMV/PGS
Codec ID/Info : Picture based subtitle format used on BDs/HD-DVDs
Duration : 1 h 53 min
Bit rate : 14.3 kb/s
Count of elements : 1346
Stream size : 11.7 MiB (0%)
Title : Full-length
Language : Ukrainian
Default : No
Forced : No
Text #3
ID : 8
Format : PGS
Codec ID : S_HDMV/PGS
Codec ID/Info : Picture based subtitle format used on BDs/HD-DVDs
Duration : 1 h 42 min
Bit rate : 18.2 kb/s
Count of elements : 1762
Stream size : 13.3 MiB (0%)
Title : Full-length
Language : English
Default : No
Forced : No
Menu
00:00:00.000 : en:Chapter 1
00:06:04.155 : en:Chapter 2
00:09:32.697 : en:Chapter 3
00:12:47.516 : en:Chapter 4
00:16:47.715 : en:Chapter 5
00:21:07.432 : en:Chapter 6
00:26:56.448 : en:Chapter 7
00:31:55.079 : en:Chapter 8
00:38:06.284 : en:Chapter 9
00:41:43.167 : en:Chapter 10
00:46:33.040 : en:Chapter 11
00:50:10.257 : en:Chapter 12
00:53:04.389 : en:Chapter 13
00:56:17.624 : en:Chapter 14
00:59:26.479 : en:Chapter 15
01:02:32.582 : en:Chapter 16
01:06:37.034 : en:Chapter 17
01:13:08.759 : en:Chapter 18
01:18:45.887 : en:Chapter 19
01:23:01.101 : en:Chapter 20
01:30:17.995 : en:Chapter 21
01:34:18.194 : en:Chapter 22
01:37:45.192 : en:Chapter 23
01:40:51.003 : en:Chapter 24
Скриншоты:




Показать сообщения:    

Текущее время: 15-Дек 00:15

Часовой пояс: UTC + 11


Вы не можете начинать темы
Вы не можете отвечать на сообщения
Вы не можете редактировать свои сообщения
Вы не можете удалять свои сообщения
Вы не можете голосовать в опросах
Вы не можете прикреплять файлы к сообщениям
Вы не можете скачивать файлы

Сайт не предоставляет электронные версии произведений, а занимается лишь коллекционированием и каталогизацией ссылок, присылаемых и публикуемых на форуме нашими читателями. Если вы являетесь правообладателем какого-либо представленного материала и не желаете, чтобы ссылка на него находилась в нашем каталоге, свяжитесь с нами, и мы незамедлительно удалим ее. Файлы для обмена на трекере предоставлены пользователями сайта, и администрация не несет ответственности за их содержание. Просьба не заливать файлы, защищенные авторскими правами, а также файлы нелегального содержания!